  0
SECTION
  2
HEADER
  9
$ACADVER
  1
AC1015
  9
$ACADMAINTVER
 70
     6
  9
$DWGCODEPAGE
  3
ANSI_1252
  9
$INSBASE
 10
0.0
 20
0.0
 30
0.0
  9
$EXTMIN
 10
-55.5426030577466
 20
-75.3021266456979
 30
0.0
  9
$EXTMAX
 10
354.4573969422535
 20
210.6978733543021
 30
0.0
  9
$LIMMIN
 10
0.0
 20
0.0
  9
$LIMMAX
 10
12.0
 20
9.0
  9
$ORTHOMODE
 70
     0
  9
$REGENMODE
 70
     1
  9
$FILLMODE
 70
     1
  9
$QTEXTMODE
 70
     0
  9
$MIRRTEXT
 70
     1
  9
$LTSCALE
 40
1.0
  9
$ATTMODE
 70
     1
  9
$TEXTSIZE
 40
0.2
  9
$TRACEWID
 40
0.05
  9
$TEXTSTYLE
  7
Standard
  9
$CLAYER
  8
0
  9
$CELTYPE
  6
ByLayer
  9
$CECOLOR
 62
   256
  9
$CELTSCALE
 40
1.0
  9
$DISPSILH
 70
     0
  9
$DIMSCALE
 40
1.0
  9
$DIMASZ
 40
0.18
  9
$DIMEXO
 40
0.0625
  9
$DIMDLI
 40
0.38
  9
$DIMRND
 40
0.0
  9
$DIMDLE
 40
0.0
  9
$DIMEXE
 40
0.18
  9
$DIMTP
 40
0.0
  9
$DIMTM
 40
0.0
  9
$DIMTXT
 40
0.18
  9
$DIMCEN
 40
0.09
  9
$DIMTSZ
 40
0.0
  9
$DIMTOL
 70
     0
  9
$DIMLIM
 70
     0
  9
$DIMTIH
 70
     1
  9
$DIMTOH
 70
     1
  9
$DIMSE1
 70
     0
  9
$DIMSE2
 70
     0
  9
$DIMTAD
 70
     0
  9
$DIMZIN
 70
     0
  9
$DIMBLK
  1

  9
$DIMASO
 70
     1
  9
$DIMSHO
 70
     1
  9
$DIMPOST
  1

  9
$DIMAPOST
  1

  9
$DIMALT
 70
     0
  9
$DIMALTD
 70
     2
  9
$DIMALTF
 40
25.4
  9
$DIMLFAC
 40
1.0
  9
$DIMTOFL
 70
     0
  9
$DIMTVP
 40
0.0
  9
$DIMTIX
 70
     0
  9
$DIMSOXD
 70
     0
  9
$DIMSAH
 70
     0
  9
$DIMBLK1
  1

  9
$DIMBLK2
  1

  9
$DIMSTYLE
  2
Standard
  9
$DIMCLRD
 70
     0
  9
$DIMCLRE
 70
     0
  9
$DIMCLRT
 70
     0
  9
$DIMTFAC
 40
1.0
  9
$DIMGAP
 40
0.09
  9
$DIMJUST
 70
     0
  9
$DIMSD1
 70
     0
  9
$DIMSD2
 70
     0
  9
$DIMTOLJ
 70
     1
  9
$DIMTZIN
 70
     0
  9
$DIMALTZ
 70
     0
  9
$DIMALTTZ
 70
     0
  9
$DIMUPT
 70
     0
  9
$DIMDEC
 70
     4
  9
$DIMTDEC
 70
     4
  9
$DIMALTU
 70
     2
  9
$DIMALTTD
 70
     2
  9
$DIMTXSTY
  7
Standard
  9
$DIMAUNIT
 70
     0
  9
$DIMADEC
 70
     0
  9
$DIMALTRND
 40
0.0
  9
$DIMAZIN
 70
     0
  9
$DIMDSEP
 70
    46
  9
$DIMATFIT
 70
     3
  9
$DIMFRAC
 70
     0
  9
$DIMLDRBLK
  1

  9
$DIMLUNIT
 70
     2
  9
$DIMLWD
 70
    -2
  9
$DIMLWE
 70
    -2
  9
$DIMTMOVE
 70
     0
  9
$LUNITS
 70
     2
  9
$LUPREC
 70
     4
  9
$SKETCHINC
 40
0.1
  9
$FILLETRAD
 40
0.5
  9
$AUNITS
 70
     0
  9
$AUPREC
 70
     0
  9
$MENU
  1
.
  9
$ELEVATION
 40
0.0
  9
$PELEVATION
 40
0.0
  9
$THICKNESS
 40
0.0
  9
$LIMCHECK
 70
     0
  9
$CHAMFERA
 40
0.5
  9
$CHAMFERB
 40
0.5
  9
$CHAMFERC
 40
1.0
  9
$CHAMFERD
 40
0.0
  9
$SKPOLY
 70
     0
  9
$TDCREATE
 40
2455014.188707025
  9
$TDUCREATE
 40
2455014.105373692
  9
$TDUPDATE
 40
2455014.188707037
  9
$TDUUPDATE
 40
2455014.105373704
  9
$TDINDWG
 40
0.0000000116
  9
$TDUSRTIMER
 40
0.0000000116
  9
$USRTIMER
 70
     1
  9
$ANGBASE
 50
0.0
  9
$ANGDIR
 70
     0
  9
$PDMODE
 70
     0
  9
$PDSIZE
 40
0.0
  9
$PLINEWID
 40
0.0
  9
$SPLFRAME
 70
     0
  9
$SPLINETYPE
 70
     6
  9
$SPLINESEGS
 70
     8
  9
$HANDSEED
  5
2F2
  9
$SURFTAB1
 70
     6
  9
$SURFTAB2
 70
     6
  9
$SURFTYPE
 70
     6
  9
$SURFU
 70
     6
  9
$SURFV
 70
     6
  9
$UCSBASE
  2

  9
$UCSNAME
  2

  9
$UCSORG
 10
0.0
 20
0.0
 30
0.0
  9
$UCSXDIR
 10
1.0
 20
0.0
 30
0.0
  9
$UCSYDIR
 10
0.0
 20
1.0
 30
0.0
  9
$UCSORTHOREF
  2

  9
$UCSORTHOVIEW
 70
     0
  9
$UCSORGTOP
 10
0.0
 20
0.0
 30
0.0
  9
$UCSORGBOTTOM
 10
0.0
 20
0.0
 30
0.0
  9
$UCSORGLEFT
 10
0.0
 20
0.0
 30
0.0
  9
$UCSORGRIGHT
 10
0.0
 20
0.0
 30
0.0
  9
$UCSORGFRONT
 10
0.0
 20
0.0
 30
0.0
  9
$UCSORGBACK
 10
0.0
 20
0.0
 30
0.0
  9
$PUCSBASE
  2

  9
$PUCSNAME
  2

  9
$PUCSORG
 10
0.0
 20
0.0
 30
0.0
  9
$PUCSXDIR
 10
1.0
 20
0.0
 30
0.0
  9
$PUCSYDIR
 10
0.0
 20
1.0
 30
0.0
  9
$PUCSORTHOREF
  2

  9
$PUCSORTHOVIEW
 70
     0
  9
$PUCSORGTOP
 10
0.0
 20
0.0
 30
0.0
  9
$PUCSORGBOTTOM
 10
0.0
 20
0.0
 30
0.0
  9
$PUCSORGLEFT
 10
0.0
 20
0.0
 30
0.0
  9
$PUCSORGRIGHT
 10
0.0
 20
0.0
 30
0.0
  9
$PUCSORGFRONT
 10
0.0
 20
0.0
 30
0.0
  9
$PUCSORGBACK
 10
0.0
 20
0.0
 30
0.0
  9
$USERI1
 70
     0
  9
$USERI2
 70
     0
  9
$USERI3
 70
     0
  9
$USERI4
 70
     0
  9
$USERI5
 70
     0
  9
$USERR1
 40
15.5
  9
$USERR2
 40
0.0
  9
$USERR3
 40
0.0
  9
$USERR4
 40
0.0
  9
$USERR5
 40
0.0
  9
$WORLDVIEW
 70
     1
  9
$SHADEDGE
 70
     3
  9
$SHADEDIF
 70
    70
  9
$TILEMODE
 70
     1
  9
$MAXACTVP
 70
    64
  9
$PINSBASE
 10
0.0
 20
0.0
 30
0.0
  9
$PLIMCHECK
 70
     0
  9
$PEXTMIN
 10
1.00000000000000E+20
 20
1.00000000000000E+20
 30
1.00000000000000E+20
  9
$PEXTMAX
 10
-1.00000000000000E+20
 20
-1.00000000000000E+20
 30
-1.00000000000000E+20
  9
$PLIMMIN
 10
0.0
 20
0.0
  9
$PLIMMAX
 10
12.0
 20
9.0
  9
$UNITMODE
 70
     0
  9
$VISRETAIN
 70
     1
  9
$PLINEGEN
 70
     0
  9
$PSLTSCALE
 70
     1
  9
$TREEDEPTH
 70
  3020
  9
$CMLSTYLE
  2
Standard
  9
$CMLJUST
 70
     0
  9
$CMLSCALE
 40
1.0
  9
$PROXYGRAPHICS
 70
     1
  9
$MEASUREMENT
 70
     1
  9
$CELWEIGHT
370
    -1
  9
$ENDCAPS
280
     0
  9
$JOINSTYLE
280
     0
  9
$LWDISPLAY
290
     0
  9
$INSUNITS
 70
     1
  9
$HYPERLINKBASE
  1

  9
$STYLESHEET
  1

  9
$XEDIT
290
     1
  9
$CEPSNTYPE
380
     0
  9
$PSTYLEMODE
290
     1
  9
$FINGERPRINTGUID
  2
{0021317B-16ED-478D-AF37-AB0C2CAB3870}
  9
$VERSIONGUID
  2
{FAEB1C32-E019-11D5-929B-00C0DF256EC4}
  9
$EXTNAMES
290
     1
  9
$PSVPSCALE
 40
0.0
  9
$OLESTARTUP
290
     0
  0
ENDSEC
  0
SECTION
  2
CLASSES
  0
CLASS
  1
ACDBDICTIONARYWDFLT
  2
AcDbDictionaryWithDefault
  3
ObjectDBX Classes
 90
        0
280
     0
281
     0
  0
CLASS
  1
VISUALSTYLE
  2
AcDbVisualStyle
  3
ObjectDBX Classes
 90
     4095
280
     0
281
     0
  0
CLASS
  1

  2
exOdDbCircle
  3

 90
        0
280
     0
281
     1
  0
CLASS
  1

  2
exOdDbSpline
  3

 90
        0
280
     0
281
     1
  0
CLASS
  1
ACDBPLACEHOLDER
  2
AcDbPlaceHolder
  3
ObjectDBX Classes
 90
        0
280
     0
281
     0
  0
CLASS
  1
LAYOUT
  2
AcDbLayout
  3
ObjectDBX Classes
 90
        0
280
     0
281
     0
  0
ENDSEC
  0
SECTION
  2
TABLES
  0
TABLE
  2
VPORT
  5
8
330
0
100
AcDbSymbolTable
 70
     1
  0
VPORT
  5
29
330
8
100
AcDbSymbolTableRecord
100
AcDbViewportTableRecord
  2
*Active
 70
     0
 10
0.0
 20
0.0
 11
1.0
 21
1.0
 12
149.4573969422535
 22
67.69787335430209
 13
0.0
 23
0.0
 14
0.5
 24
0.5
 15
0.5
 25
0.5
 16
0.0
 26
0.0
 36
1.0
 17
0.0
 27
0.0
 37
0.0
 40
314.6
 41
1.60267857142857
 42
50.0
 43
0.0
 44
0.0
 50
0.0
 51
0.0
 71
     0
 72
   100
 73
     1
 74
     3
 75
     0
 76
     0
 77
     0
 78
     0
281
     0
 65
     1
110
0.0
120
0.0
130
0.0
111
1.0
121
0.0
131
0.0
112
0.0
122
1.0
132
0.0
 79
     0
146
0.0
  0
ENDTAB
  0
TABLE
  2
LTYPE
  5
5
330
0
100
AcDbSymbolTable
 70
     9
  0
LTYPE
  5
14
330
5
100
AcDbSymbolTableRecord
100
AcDbLinetypeTableRecord
  2
ByBlock
 70
     0
  3

 72
    65
 73
     0
 40
0.0
  0
LTYPE
  5
15
330
5
100
AcDbSymbolTableRecord
100
AcDbLinetypeTableRecord
  2
ByLayer
 70
     0
  3

 72
    65
 73
     0
 40
0.0
  0
LTYPE
  5
16
330
5
100
AcDbSymbolTableRecord
100
AcDbLinetypeTableRecord
  2
Continuous
 70
     0
  3
Solid line
 72
    65
 73
     0
 40
0.0
  0
LTYPE
  5
3B
330
5
100
AcDbSymbolTableRecord
100
AcDbLinetypeTableRecord
  2
DASHED
 70
     0
  3
Dashed
 72
    65
 73
     2
 40
15.0
 49
7.0
 74
     0
 49
-8.0
 74
     0
  0
LTYPE
  5
3C
330
5
100
AcDbSymbolTableRecord
100
AcDbLinetypeTableRecord
  2
DOTTED
 70
     0
  3
Dotted
 72
    65
 73
     2
 40
1.0
 49
0.0
 74
     0
 49
-1.0
 74
     0
  0
LTYPE
  5
3D
330
5
100
AcDbSymbolTableRecord
100
AcDbLinetypeTableRecord
  2
DOT_CENTER
 70
     0
  3
Dot_Center
 72
    65
 73
     4
 40
14.0
 49
12.0
 74
     0
 49
-1.0
 74
     0
 49
0.0
 74
     0
 49
-1.0
 74
     0
  0
LTYPE
  5
3E
330
5
100
AcDbSymbolTableRecord
100
AcDbLinetypeTableRecord
  2
LONG_DASHED
 70
     0
  3
Long_Dashed
 72
    65
 73
     2
 40
15.0
 49
10.0
 74
     0
 49
-5.0
 74
     0
  0
LTYPE
  5
3F
330
5
100
AcDbSymbolTableRecord
100
AcDbLinetypeTableRecord
  2
DASH_CENTER
 70
     0
  3
Dash_Center
 72
    65
 73
     4
 40
14.0
 49
11.0
 74
     0
 49
-1.0
 74
     0
 49
1.0
 74
     0
 49
-1.0
 74
     0
  0
LTYPE
  5
40
330
5
100
AcDbSymbolTableRecord
100
AcDbLinetypeTableRecord
  2
PHANTOM
 70
     0
  3
Phantom
 72
    65
 73
     6
 40
13.0
 49
10.0
 74
     0
 49
-1.0
 74
     0
 49
0.0
 74
     0
 49
-1.0
 74
     0
 49
0.0
 74
     0
 49
-1.0
 74
     0
  0
LTYPE
  5
41
330
5
100
AcDbSymbolTableRecord
100
AcDbLinetypeTableRecord
  2
CENTER_DASH_DASH
 70
     0
  3
Center_Dash_Dash
 72
    65
 73
     6
 40
14.0
 49
9.0
 74
     0
 49
-1.0
 74
     0
 49
1.0
 74
     0
 49
-1.0
 74
     0
 49
1.0
 74
     0
 49
-1.0
 74
     0
  0
LTYPE
  5
42
330
5
100
AcDbSymbolTableRecord
100
AcDbLinetypeTableRecord
  2
MITTELLINIE_K
 70
     0
  3
MITTELLINIE_K
 72
    65
 73
     4
 40
7.0
 49
5.0
 74
     0
 49
-1.0
 74
     0
 49
0.0
 74
     0
 49
-1.0
 74
     0
  0
ENDTAB
  0
TABLE
  2
LAYER
  5
2
330
0
100
AcDbSymbolTable
 70
     8
  0
LAYER
  5
10
330
2
100
AcDbSymbolTableRecord
100
AcDbLayerTableRecord
  2
0
 70
     0
 62
     7
  6
Continuous
370
    -3
390
F
  0
LAYER
  5
43
330
2
100
AcDbSymbolTableRecord
100
AcDbLayerTableRecord
  2
1
 70
     0
 62
     7
  6
Continuous
370
    -3
390
F
  0
LAYER
  5
44
330
2
100
AcDbSymbolTableRecord
100
AcDbLayerTableRecord
  2
DEFPOINTS
 70
     0
 62
     7
  6
Continuous
290
     0
370
    -3
390
F
  0
LAYER
  5
45
330
2
100
AcDbSymbolTableRecord
100
AcDbLayerTableRecord
  2
Dick
 70
     0
 62
     2
  6
Continuous
370
    -3
390
F
  0
LAYER
  5
46
330
2
100
AcDbSymbolTableRecord
100
AcDbLayerTableRecord
  2
Duenn
 70
     0
 62
     7
  6
Continuous
370
    -3
390
F
  0
LAYER
  5
47
330
2
100
AcDbSymbolTableRecord
100
AcDbLayerTableRecord
  2
Mittellinie-K
 70
     0
 62
     7
  6
MITTELLINIE_K
370
    -3
390
F
  0
LAYER
  5
48
330
2
100
AcDbSymbolTableRecord
100
AcDbLayerTableRecord
  2
Phantom
 70
     0
 62
     1
  6
PHANTOM
370
    -3
390
F
  0
LAYER
  5
49
330
2
100
AcDbSymbolTableRecord
100
AcDbLayerTableRecord
  2
Verdeckt
 70
     0
 62
     7
  6
PHANTOM
370
    -3
390
F
  0
ENDTAB
  0
TABLE
  2
STYLE
  5
3
330
0
100
AcDbSymbolTable
 70
     7
  0
STYLE
  5
11
330
3
100
AcDbSymbolTableRecord
100
AcDbTextStyleTableRecord
  2
Standard
 70
     0
 40
0.0
 41
1.0
 50
0.0
 71
     0
 42
0.2
  3
txt
  4

  0
STYLE
  5
181
330
3
100
AcDbSymbolTableRecord
100
AcDbTextStyleTableRecord
  2
CONVERTER_11
 70
     0
 40
0.0
 41
0.81
 50
0.0
 71
     0
 42
0.2
  3
txt.shx
  4

  0
STYLE
  5
183
330
3
100
AcDbSymbolTableRecord
100
AcDbTextStyleTableRecord
  2
CONVERTER_12
 70
     0
 40
0.0
 41
0.9
 50
0.0
 71
     0
 42
0.2
  3
txt.shx
  4

  0
STYLE
  5
186
330
3
100
AcDbSymbolTableRecord
100
AcDbTextStyleTableRecord
  2
CONVERTER_13
 70
     0
 40
0.0
 41
0.72
 50
0.0
 71
     0
 42
0.2
  3
txt.shx
  4

  0
STYLE
  5
193
330
3
100
AcDbSymbolTableRecord
100
AcDbTextStyleTableRecord
  2
CONVERTER_14
 70
     0
 40
0.0
 41
0.66696267749507
 50
0.0
 71
     0
 42
0.2
  3
txt.shx
  4

  0
STYLE
  5
196
330
3
100
AcDbSymbolTableRecord
100
AcDbTextStyleTableRecord
  2
CONVERTER_15
 70
     0
 40
0.0
 41
0.54
 50
0.0
 71
     0
 42
0.2
  3
txt.shx
  4

  0
STYLE
  5
1D2
330
3
100
AcDbSymbolTableRecord
100
AcDbTextStyleTableRecord
  2
CONVERTER_16
 70
     0
 40
0.0
 41
0.765
 50
0.0
 71
     0
 42
0.2
  3
txt.shx
  4

  0
ENDTAB
  0
TABLE
  2
VIEW
  5
6
330
0
100
AcDbSymbolTable
 70
     0
  0
ENDTAB
  0
TABLE
  2
UCS
  5
7
330
0
100
AcDbSymbolTable
 70
     0
  0
ENDTAB
  0
TABLE
  2
APPID
  5
9
330
0
100
AcDbSymbolTable
 70
     1
  0
APPID
  5
12
330
9
100
AcDbSymbolTableRecord
100
AcDbRegAppTableRecord
  2
ACAD
 70
     0
  0
ENDTAB
  0
TABLE
  2
DIMSTYLE
  5
A
330
0
100
AcDbSymbolTable
 70
    12
100
AcDbDimStyleTable
  0
DIMSTYLE
105
27
330
A
100
AcDbSymbolTableRecord
100
AcDbDimStyleTableRecord
  2
Standard
 70
     0
340
11
  0
DIMSTYLE
105
27A
102
{ACAD_REACTORS
330
27B
102
}
330
A
100
AcDbSymbolTableRecord
100
AcDbDimStyleTableRecord
  2
ME10_DIM_10
 70
     0
 41
3.5
 42
0.0
 44
2.0
 73
     0
 74
     0
 77
     1
 78
     8
140
3.5
147
2.0
172
     1
173
     1
176
     3
177
     3
178
     4
271
     2
340
183
  0
DIMSTYLE
105
287
102
{ACAD_REACTORS
330
288
102
}
330
A
100
AcDbSymbolTableRecord
100
AcDbDimStyleTableRecord
  2
ME10_DIM_11
 70
     0
 41
3.5
 42
0.0
 44
2.0
 73
     0
 74
     0
 77
     1
 78
     8
140
3.5
147
2.0
172
     1
173
     1
176
     3
177
     3
178
     4
271
     2
340
183
  0
DIMSTYLE
105
292
102
{ACAD_REACTORS
330
293
102
}
330
A
100
AcDbSymbolTableRecord
100
AcDbDimStyleTableRecord
  2
ME10_DIM_12
 70
     0
 41
3.5
 42
0.0
 44
2.0
 73
     0
 74
     0
 77
     1
 78
     8
140
3.5
147
2.0
172
     1
173
     1
176
     3
177
     3
178
     4
271
     2
340
183
  0
DIMSTYLE
105
29D
102
{ACAD_REACTORS
330
29E
102
}
330
A
100
AcDbSymbolTableRecord
100
AcDbDimStyleTableRecord
  2
ME10_DIM_13
 70
     0
 41
3.5
 42
0.0
 44
2.0
 73
     0
 74
     0
 77
     1
 78
     8
140
3.5
147
2.0
172
     1
173
     1
176
     3
177
     3
178
     4
271
     2
340
183
  0
DIMSTYLE
105
2A8
102
{ACAD_REACTORS
330
2A9
102
}
330
A
100
AcDbSymbolTableRecord
100
AcDbDimStyleTableRecord
  2
ME10_DIM_14
 70
     0
 41
3.5
 42
0.0
 44
2.0
 73
     0
 74
     0
 77
     1
 78
     8
140
3.5
147
2.0
172
     1
173
     1
176
     3
177
     3
178
     4
271
     2
340
183
  0
DIMSTYLE
105
2B5
102
{ACAD_REACTORS
330
2B6
102
}
330
A
100
AcDbSymbolTableRecord
100
AcDbDimStyleTableRecord
  2
ME10_DIM_15
 70
     0
 41
3.5
 42
0.0
 44
2.0
 73
     0
 74
     0
 77
     1
 78
     8
140
3.5
147
2.0
172
     1
173
     1
176
     3
177
     3
178
     4
271
     2
340
183
  0
DIMSTYLE
105
2C0
102
{ACAD_REACTORS
330
2C1
102
}
330
A
100
AcDbSymbolTableRecord
100
AcDbDimStyleTableRecord
  2
ME10_DIM_16
 70
     0
 41
3.5
 42
0.0
 44
2.0
 73
     0
 74
     0
 77
     1
 78
     8
140
3.5
147
2.0
172
     1
173
     1
176
     3
177
     3
178
     4
271
     2
340
183
  0
DIMSTYLE
105
2CB
102
{ACAD_REACTORS
330
2CC
102
}
330
A
100
AcDbSymbolTableRecord
100
AcDbDimStyleTableRecord
  2
ME10_DIM_17
 70
     0
 41
3.5
 42
0.0
 44
2.0
 73
     0
 74
     0
 77
     1
 78
     8
140
3.5
147
2.0
172
     1
173
     1
176
     3
177
     3
178
     4
271
     2
340
183
  0
DIMSTYLE
105
2D6
102
{ACAD_REACTORS
330
2D7
102
}
330
A
100
AcDbSymbolTableRecord
100
AcDbDimStyleTableRecord
  2
ME10_DIM_18
 70
     0
  3
{\Fgdt;n}<>
 41
3.5
 42
0.0
 44
2.0
 73
     0
 74
     0
 77
     1
 78
     8
140
3.5
147
2.0
172
     1
173
     1
176
     3
177
     3
178
     4
271
     2
340
183
  0
DIMSTYLE
105
2E3
102
{ACAD_REACTORS
330
2E4
102
}
330
A
100
AcDbSymbolTableRecord
100
AcDbDimStyleTableRecord
  2
ME10_DIM_19
 70
     0
 41
3.5
 42
0.0
 44
2.0
 73
     0
 74
     0
 77
     1
 78
     8
140
3.5
147
2.0
172
     1
173
     1
176
     3
177
     3
178
     4
271
     2
340
183
  0
DIMSTYLE
105
2EE
102
{ACAD_REACTORS
330
2EF
102
}
330
A
100
AcDbSymbolTableRecord
100
AcDbDimStyleTableRecord
  2
ME10_DIM_20
 70
     0
 41
3.5
 42
0.0
 44
2.0
 73
     0
 74
     0
 77
     1
 78
     8
140
3.5
147
2.0
172
     1
173
     1
176
     3
177
     3
178
     4
271
     2
340
183
  0
ENDTAB
  0
TABLE
  2
BLOCK_RECORD
  5
1
330
0
100
AcDbSymbolTable
 70
    32
  0
BLOCK_RECORD
  5
1F
330
1
100
AcDbSymbolTableRecord
100
AcDbBlockTableRecord
  2
*Model_Space
340
22
  0
BLOCK_RECORD
  5
1B
330
1
100
AcDbSymbolTableRecord
100
AcDbBlockTableRecord
  2
*Paper_Space
340
1E
  0
BLOCK_RECORD
  5
23
330
1
100
AcDbSymbolTableRecord
100
AcDbBlockTableRecord
  2
*Paper_Space0
340
26
  0
BLOCK_RECORD
  5
4A
330
1
100
AcDbSymbolTableRecord
100
AcDbBlockTableRecord
  2
Top__1
340
0
102
{BLKREFS
331
4E
102
}
  0
BLOCK_RECORD
  5
4D
330
1
100
AcDbSymbolTableRecord
100
AcDbBlockTableRecord
  2
1__2
340
0
102
{BLKREFS
331
52
102
}
  0
BLOCK_RECORD
  5
51
330
1
100
AcDbSymbolTableRecord
100
AcDbBlockTableRecord
  2
1__3
340
0
102
{BLKREFS
331
56
102
}
  0
BLOCK_RECORD
  5
55
330
1
100
AcDbSymbolTableRecord
100
AcDbBlockTableRecord
  2
SD_drawing__4
340
0
102
{BLKREFS
331
8F
102
}
  0
BLOCK_RECORD
  5
59
330
1
100
AcDbSymbolTableRecord
100
AcDbBlockTableRecord
  2
a3kl
340
0
102
{BLKREFS
331
5D
102
}
  0
BLOCK_RECORD
  5
5C
330
1
100
AcDbSymbolTableRecord
100
AcDbBlockTableRecord
  2
rahmen
340
0
102
{BLKREFS
331
90
102
}
  0
BLOCK_RECORD
  5
60
330
1
100
AcDbSymbolTableRecord
100
AcDbBlockTableRecord
  2
TOP__5
340
0
102
{BLKREFS
331
64
102
}
  0
BLOCK_RECORD
  5
63
330
1
100
AcDbSymbolTableRecord
100
AcDbBlockTableRecord
  2
TOP__6
340
0
102
{BLKREFS
331
68
102
}
  0
BLOCK_RECORD
  5
67
330
1
100
AcDbSymbolTableRecord
100
AcDbBlockTableRecord
  2
1__7
340
0
102
{BLKREFS
331
6C
102
}
  0
BLOCK_RECORD
  5
6B
330
1
100
AcDbSymbolTableRecord
100
AcDbBlockTableRecord
  2
Top__8
340
0
102
{BLKREFS
331
70
102
}
  0
BLOCK_RECORD
  5
6F
330
1
100
AcDbSymbolTableRecord
100
AcDbBlockTableRecord
  2
1__9
340
0
102
{BLKREFS
331
74
102
}
  0
BLOCK_RECORD
  5
73
330
1
100
AcDbSymbolTableRecord
100
AcDbBlockTableRecord
  2
1__10
340
0
102
{BLKREFS
331
78
102
}
  0
BLOCK_RECORD
  5
77
330
1
100
AcDbSymbolTableRecord
100
AcDbBlockTableRecord
  2
Einfügen1
340
0
102
{BLKREFS
331
7C
102
}
  0
BLOCK_RECORD
  5
7B
330
1
100
AcDbSymbolTableRecord
100
AcDbBlockTableRecord
  2
1__11
340
0
102
{BLKREFS
331
91
102
}
  0
BLOCK_RECORD
  5
7F
330
1
100
AcDbSymbolTableRecord
100
AcDbBlockTableRecord
  2
_OFLA
340
0
102
{BLKREFS
331
83
102
}
  0
BLOCK_RECORD
  5
82
330
1
100
AcDbSymbolTableRecord
100
AcDbBlockTableRecord
  2
1__12
340
0
102
{BLKREFS
331
87
102
}
  0
BLOCK_RECORD
  5
86
330
1
100
AcDbSymbolTableRecord
100
AcDbBlockTableRecord
  2
1__13
340
0
102
{BLKREFS
331
8B
102
}
  0
BLOCK_RECORD
  5
8A
330
1
100
AcDbSymbolTableRecord
100
AcDbBlockTableRecord
  2
SD_drawing__14
340
0
102
{BLKREFS
331
92
102
}
  0
BLOCK_RECORD
  5
8E
330
1
100
AcDbSymbolTableRecord
100
AcDbBlockTableRecord
  2
TOP__15
340
0
102
{BLKREFS
331
96
102
}
  0
BLOCK_RECORD
  5
95
330
1
100
AcDbSymbolTableRecord
100
AcDbBlockTableRecord
  2
1__16
340
0
102
{BLKREFS
331
99
102
}
  0
BLOCK_RECORD
  5
271
330
1
100
AcDbSymbolTableRecord
100
AcDbBlockTableRecord
  2
*D21
340
0
  0
BLOCK_RECORD
  5
27C
330
1
100
AcDbSymbolTableRecord
100
AcDbBlockTableRecord
  2
*D22
340
0
  0
BLOCK_RECORD
  5
289
330
1
100
AcDbSymbolTableRecord
100
AcDbBlockTableRecord
  2
*D23
340
0
  0
BLOCK_RECORD
  5
294
330
1
100
AcDbSymbolTableRecord
100
AcDbBlockTableRecord
  2
*D24
340
0
  0
BLOCK_RECORD
  5
29F
330
1
100
AcDbSymbolTableRecord
100
AcDbBlockTableRecord
  2
*D25
340
0
  0
BLOCK_RECORD
  5
2AA
330
1
100
AcDbSymbolTableRecord
100
AcDbBlockTableRecord
  2
*D26
340
0
  0
BLOCK_RECORD
  5
2B7
330
1
100
AcDbSymbolTableRecord
100
AcDbBlockTableRecord
  2
*D27
340
0
  0
BLOCK_RECORD
  5
2C2
330
1
100
AcDbSymbolTableRecord
100
AcDbBlockTableRecord
  2
*D28
340
0
  0
BLOCK_RECORD
  5
2CD
330
1
100
AcDbSymbolTableRecord
100
AcDbBlockTableRecord
  2
*D29
340
0
  0
BLOCK_RECORD
  5
2D8
330
1
100
AcDbSymbolTableRecord
100
AcDbBlockTableRecord
  2
*D30
340
0
  0
BLOCK_RECORD
  5
2E5
330
1
100
AcDbSymbolTableRecord
100
AcDbBlockTableRecord
  2
*D31
340
0
  0
ENDTAB
  0
ENDSEC
  0
SECTION
  2
BLOCKS
  0
BLOCK
  5
20
330
1F
100
AcDbEntity
  8
0
100
AcDbBlockBegin
  2
*Model_Space
 70
     0
 71
     0
 10
0.0
 20
0.0
 30
0.0
  3
*Model_Space
  1

  0
ENDBLK
  5
21
330
1F
100
AcDbEntity
  8
0
100
AcDbBlockEnd
  0
BLOCK
  5
1C
330
1B
100
AcDbEntity
 67
     1
  8
0
100
AcDbBlockBegin
  2
*Paper_Space
 70
     0
 71
     0
 10
0.0
 20
0.0
 30
0.0
  3
*Paper_Space
  1

  0
ENDBLK
  5
1D
330
1B
100
AcDbEntity
 67
     1
  8
0
100
AcDbBlockEnd
  0
BLOCK
  5
24
330
23
100
AcDbEntity
  8
0
100
AcDbBlockBegin
  2
*Paper_Space0
 70
     0
 71
     0
 10
0.0
 20
0.0
 30
0.0
  3
*Paper_Space0
  1

  0
ENDBLK
  5
25
330
23
100
AcDbEntity
  8
0
100
AcDbBlockEnd
  0
BLOCK
  5
4B
330
4A
100
AcDbEntity
  8
0
100
AcDbBlockBegin
  2
Top__1
 70
     0
 71
     0
 10
98.19361444599052
 20
126.3734191815999
 30
0.0
  3
Top__1
  1

  0
POINT
  5
9A
330
4A
100
AcDbEntity
  8
DEFPOINTS
 62
     7
100
AcDbPoint
 10
164.2032238242401
 20
137.1234191815988
 30
0.0
  0
POINT
  5
9B
330
4A
100
AcDbEntity
  8
DEFPOINTS
 62
     7
100
AcDbPoint
 10
164.2032238242401
 20
137.1234191815988
 30
0.0
  0
LINE
  5
9C
330
4A
100
AcDbEntity
  8
1
  6
DOT_CENTER
 62
     3
100
AcDbLine
 10
45.20322382423983
 20
102.2734191815988
 30
0.0
 11
45.20322382423983
 21
120.9734191815988
 31
0.0
  0
LINE
  5
9D
330
4A
100
AcDbEntity
  8
1
  6
DOT_CENTER
 62
     3
100
AcDbLine
 10
54.55322382423982
 20
111.6234191815988
 30
0.0
 11
35.85322382423983
 21
111.6234191815988
 31
0.0
  0
LINE
  5
9E
330
4A
100
AcDbEntity
  8
1
  6
DOT_CENTER
 62
     3
100
AcDbLine
 10
103.2032238242398
 20
102.2734191815988
 30
0.0
 11
103.2032238242398
 21
120.9734191815988
 31
0.0
  0
LINE
  5
9F
330
4A
100
AcDbEntity
  8
1
  6
DOT_CENTER
 62
     3
100
AcDbLine
 10
112.5532238242398
 20
111.6234191815988
 30
0.0
 11
93.85322382423982
 21
111.6234191815988
 31
0.0
  0
LINE
  5
A0
330
4A
100
AcDbEntity
  8
0
  6
Continuous
 62
     1
100
AcDbLine
 10
16.20322382424001
 20
128.1234191815999
 30
0.0
 11
16.20322382424001
 21
125.1234191815999
 31
0.0
  0
LINE
  5
A1
330
4A
100
AcDbEntity
  8
0
  6
Continuous
 62
     7
100
AcDbLine
 10
16.20322382424001
 20
128.1234191815999
 30
0.0
 11
16.20322382424001
 21
125.1234191815999
 31
0.0
  0
LINE
  5
A2
330
4A
100
AcDbEntity
  8
Dick
100
AcDbLine
 10
16.20322382424001
 20
128.1234191815999
 30
0.0
 11
16.20322382424001
 21
125.1234191815999
 31
0.0
  0
LINE
  5
A3
330
4A
100
AcDbEntity
  8
0
  6
Continuous
 62
     1
100
AcDbLine
 10
16.20322382424001
 20
134.1386595557368
 30
0.0
 11
16.20322382424001
 21
128.1234191815999
 31
0.0
  0
LINE
  5
A4
330
4A
100
AcDbEntity
  8
0
  6
Continuous
 62
     7
100
AcDbLine
 10
16.20322382424001
 20
134.1386595557368
 30
0.0
 11
16.20322382424001
 21
128.1234191815999
 31
0.0
  0
LINE
  5
A5
330
4A
100
AcDbEntity
  8
Dick
100
AcDbLine
 10
16.20322382424001
 20
150.123419181601
 30
0.0
 11
16.20322382424001
 21
128.1234191815999
 31
0.0
  0
LINE
  5
A6
330
4A
100
AcDbEntity
  8
1
  6
Continuous
 62
     1
100
AcDbLine
 10
16.20322382424001
 20
128.1234191815999
 30
0.0
 11
16.20322382424001
 21
125.1234191815999
 31
0.0
  0
LINE
  5
A7
330
4A
100
AcDbEntity
  8
1
  6
Continuous
 62
     1
100
AcDbLine
 10
16.20322382424001
 20
125.1234191815999
 30
0.0
 11
14.68961611634853
 21
125.1234191815999
 31
0.0
  0
LINE
  5
A8
330
4A
100
AcDbEntity
  8
1
  6
Continuous
 62
     1
100
AcDbLine
 10
14.68961611634853
 20
125.1234191815999
 30
0.0
 11
14.68961611634853
 21
128.1234191815999
 31
0.0
  0
LINE
  5
A9
330
4A
100
AcDbEntity
  8
1
  6
Continuous
 62
     1
100
AcDbLine
 10
14.68961611634853
 20
128.1234191815999
 30
0.0
 11
16.20322382424001
 21
128.1234191815999
 31
0.0
  0
LINE
  5
AA
330
4A
100
AcDbEntity
  8
Dick
100
AcDbLine
 10
180.2032238242404
 20
128.1234191815999
 30
0.0
 11
180.2032238242404
 21
125.1234191815999
 31
0.0
  0
LINE
  5
AB
330
4A
100
AcDbEntity
  8
Dick
100
AcDbLine
 10
180.2032238242401
 20
150.123419181601
 30
0.0
 11
180.2032238242404
 21
128.1234191815999
 31
0.0
  0
LINE
  5
AC
330
4A
100
AcDbEntity
  8
1
  6
Continuous
 62
     1
100
AcDbLine
 10
180.2032238242404
 20
128.1234191815999
 30
0.0
 11
180.2032238242404
 21
125.1234191815999
 31
0.0
  0
LINE
  5
AD
330
4A
100
AcDbEntity
  8
1
  6
Continuous
 62
     1
100
AcDbLine
 10
180.2032238242404
 20
125.1234191815999
 30
0.0
 11
181.6976127756325
 21
125.1234191815999
 31
0.0
  0
LINE
  5
AE
330
4A
100
AcDbEntity
  8
1
  6
Continuous
 62
     1
100
AcDbLine
 10
181.6976127756325
 20
125.1234191815999
 30
0.0
 11
181.6976127756325
 21
128.1234191815999
 31
0.0
  0
LINE
  5
AF
330
4A
100
AcDbEntity
  8
1
  6
Continuous
 62
     1
100
AcDbLine
 10
181.6976127756325
 20
128.1234191815999
 30
0.0
 11
180.2032238242404
 21
128.1234191815999
 31
0.0
  0
LINE
  5
B0
330
4A
100
AcDbEntity
  8
0
  6
Continuous
 62
     1
100
AcDbLine
 10
16.20322382424001
 20
125.1234191815999
 30
0.0
 11
16.20322382424001
 21
123.4074935278147
 31
0.0
  0
LINE
  5
B1
330
4A
100
AcDbEntity
  8
0
  6
Continuous
 62
     7
100
AcDbLine
 10
16.20322382424001
 20
125.1234191815999
 30
0.0
 11
16.20322382424001
 21
123.4074935278147
 31
0.0
  0
LINE
  5
B2
330
4A
100
AcDbEntity
  8
Verdeckt
100
AcDbLine
 10
63.20322382424021
 20
121.6234191815988
 30
0.0
 11
63.20322382424021
 21
120.1234191815988
 31
0.0
  0
LINE
  5
B3
330
4A
100
AcDbEntity
  8
Verdeckt
100
AcDbLine
 10
68.28735228864991
 20
111.6234191815988
 30
0.0
 11
67.90322382423983
 21
122.623419181601
 31
0.0
  0
LINE
  5
B4
330
4A
100
AcDbEntity
  8
Verdeckt
100
AcDbLine
 10
95.20322382424033
 20
120.1234191815988
 30
0.0
 11
95.20322382424033
 21
121.6234191815988
 31
0.0
  0
LINE
  5
B5
330
4A
100
AcDbEntity
  8
Verdeckt
100
AcDbLine
 10
90.11909535983011
 20
111.6234191815988
 30
0.0
 11
90.50322382424034
 21
122.623419181601
 31
0.0
  0
LINE
  5
B6
330
4A
100
AcDbEntity
  8
Verdeckt
100
AcDbLine
 10
94.20322382424033
 20
122.623419181601
 30
0.0
 11
64.20322382424021
 21
122.623419181601
 31
0.0
  0
LINE
  5
B7
330
4A
100
AcDbEntity
  8
Verdeckt
100
AcDbLine
 10
95.20322382424033
 20
101.623419181601
 30
0.0
 11
95.20322382424033
 21
103.1234191815988
 31
0.0
  0
LINE
  5
B8
330
4A
100
AcDbEntity
  8
Verdeckt
100
AcDbLine
 10
63.20322382424021
 20
103.1234191815988
 30
0.0
 11
63.20322382424021
 21
101.6234191815988
 31
0.0
  0
LINE
  5
B9
330
4A
100
AcDbEntity
  8
Dick
100
AcDbLine
 10
64.20322382424021
 20
100.6234191815988
 30
0.0
 11
94.20322382424033
 21
100.623419181601
 31
0.0
  0
LINE
  5
BA
330
4A
100
AcDbEntity
  8
Verdeckt
100
AcDbLine
 10
93.73563648049225
 20
100.6234191815988
 30
0.0
 11
93.73563648049225
 21
122.623419181601
 31
0.0
  0
LINE
  5
BB
330
4A
100
AcDbEntity
  8
Verdeckt
100
AcDbLine
 10
95.20322382424033
 20
120.1234191815988
 30
0.0
 11
95.20322382424033
 21
103.1234191815988
 31
0.0
  0
LINE
  5
BC
330
4A
100
AcDbEntity
  8
Verdeckt
100
AcDbLine
 10
63.20322382424021
 20
120.1234191815988
 30
0.0
 11
63.20322382424021
 21
103.1234191815988
 31
0.0
  0
LINE
  5
BD
330
4A
100
AcDbEntity
  8
Verdeckt
100
AcDbLine
 10
103.2032238242398
 20
120.1234191815988
 30
0.0
 11
45.20322382423983
 21
120.1234191815988
 31
0.0
  0
LINE
  5
BE
330
4A
100
AcDbEntity
  8
Verdeckt
100
AcDbLine
 10
45.20322382423983
 20
103.1234191815988
 30
0.0
 11
103.2032238242398
 21
103.1234191815988
 31
0.0
  0
LINE
  5
BF
330
4A
100
AcDbEntity
  8
Mittellinie-K
100
AcDbLine
 10
115.4691093301784
 20
111.6234191815988
 30
0.0
 11
33.68376232653033
 21
111.6234191815988
 31
0.0
  0
LINE
  5
C0
330
4A
100
AcDbEntity
  8
Phantom
100
AcDbLine
 10
16.20322382424001
 20
138.1234191815988
 30
0.0
 11
84.20322382424001
 21
138.1234191815988
 31
0.0
  0
LINE
  5
C1
330
4A
100
AcDbEntity
  8
Dick
100
AcDbLine
 10
178.2032238242401
 20
101.1234191815988
 30
0.0
 11
176.052564155769
 21
101.1234191815988
 31
0.0
  0
LINE
  5
C2
330
4A
100
AcDbEntity
  8
Dick
100
AcDbLine
 10
180.2032238242404
 20
125.1234191815999
 30
0.0
 11
180.2032238242408
 21
103.1234191815988
 31
0.0
  0
LINE
  5
C3
330
4A
100
AcDbEntity
  8
Dick
100
AcDbLine
 10
18.20322382424001
 20
152.123419181601
 30
0.0
 11
178.2032238242401
 21
152.123419181601
 31
0.0
  0
LINE
  5
C4
330
4A
100
AcDbEntity
  8
Dick
100
AcDbLine
 10
176.052564155769
 20
101.1234191815988
 30
0.0
 11
18.20322382424001
 21
101.1234191815988
 31
0.0
  0
LINE
  5
C5
330
4A
100
AcDbEntity
  8
Mittellinie-K
100
AcDbLine
 10
151.9478529051475
 20
137.1234191815988
 30
0.0
 11
177.4436463869424
 21
137.1234191815988
 31
0.0
  0
LINE
  5
C6
330
4A
100
AcDbEntity
  8
Mittellinie-K
100
AcDbLine
 10
164.2032238242401
 20
124.386485655447
 30
0.0
 11
164.2032238242401
 21
149.705569240381
 31
0.0
  0
LINE
  5
C7
330
4A
100
AcDbEntity
  8
Dick
100
AcDbLine
 10
16.20322382424001
 20
125.1234191815999
 30
0.0
 11
16.20322382424001
 21
103.1234191815988
 31
0.0
  0
LINE
  5
C8
330
4A
100
AcDbEntity
  8
Verdeckt
100
AcDbLine
 10
90.11909535983011
 20
111.6234191815988
 30
0.0
 11
90.50322382424042
 21
100.6234191815988
 31
0.0
  0
LINE
  5
C9
330
4A
100
AcDbEntity
  8
Verdeckt
100
AcDbLine
 10
68.28735228864991
 20
111.6234191815988
 30
0.0
 11
67.90322382423983
 21
100.6234191815988
 31
0.0
  0
ARC
  5
CA
330
4A
100
AcDbEntity
  8
Dick
100
AcDbCircle
 10
18.20322382424001
 20
150.123419181601
 30
0.0
 40
2.0
100
AcDbArc
 50
90.0
 51
180.0
  0
ARC
  5
CB
330
4A
100
AcDbEntity
  8
Dick
100
AcDbCircle
 10
18.20322382424001
 20
103.1234191815988
 30
0.0
 40
2.0
100
AcDbArc
 50
180.0
 51
-90.0
  0
ARC
  5
CC
330
4A
100
AcDbEntity
  8
Verdeckt
100
AcDbCircle
 10
64.20322382424021
 20
121.6234191815988
 30
0.0
 40
1.000000000002188
100
AcDbArc
 50
90.0
 51
180.0
  0
ARC
  5
CD
330
4A
100
AcDbEntity
  8
Verdeckt
100
AcDbCircle
 10
94.20322382423981
 20
121.6234191815988
 30
0.0
 40
1.000000000000512
100
AcDbArc
 50
0.0
 51
89.99999999997068
  0
ARC
  5
CE
330
4A
100
AcDbEntity
  8
Dick
100
AcDbCircle
 10
94.20322382424033
 20
101.623419181601
 30
0.0
 40
1.0
100
AcDbArc
 50
-90.0
 51
-30.00000000011483
  0
ARC
  5
CF
330
4A
100
AcDbEntity
  8
Verdeckt
100
AcDbCircle
 10
94.20322382424033
 20
101.623419181601
 30
0.0
 40
1.000000000000905
100
AcDbArc
 50
-30.00000000011483
 51
0.0
  0
ARC
  5
D0
330
4A
100
AcDbEntity
  8
Verdeckt
100
AcDbCircle
 10
64.20322382424021
 20
101.6234191815988
 30
0.0
 40
1.0
100
AcDbArc
 50
180.0
 51
-149.9999999999897
  0
ARC
  5
D1
330
4A
100
AcDbEntity
  8
Dick
100
AcDbCircle
 10
64.20322382424021
 20
101.6234191815988
 30
0.0
 40
0.9999999999996882
100
AcDbArc
 50
-149.9999999999897
 51
-90.0
  0
ARC
  5
D2
330
4A
100
AcDbEntity
  8
Verdeckt
100
AcDbCircle
 10
45.20322382423983
 20
111.6234191815988
 30
0.0
 40
8.5
100
AcDbArc
 50
90.0
 51
-90.0
  0
ARC
  5
D3
330
4A
100
AcDbEntity
  8
Verdeckt
100
AcDbCircle
 10
103.2032238242398
 20
111.6234191815988
 30
0.0
 40
8.5
100
AcDbArc
 50
-90.0
 51
90.0
  0
ARC
  5
D4
330
4A
100
AcDbEntity
  8
Phantom
100
AcDbCircle
 10
84.20322382424001
 20
58.12341918159963
 30
0.0
 40
79.99999999999937
100
AcDbArc
 50
46.54592854627998
 51
90.0
  0
ARC
  5
D5
330
4A
100
AcDbEntity
  8
Dick
100
AcDbCircle
 10
178.2032238242401
 20
150.123419181601
 30
0.0
 40
2.0
100
AcDbArc
 50
0.0
 51
90.0
  0
ARC
  5
D6
330
4A
100
AcDbEntity
  8
Dick
100
AcDbCircle
 10
178.2032238242401
 20
103.1234191815988
 30
0.0
 40
2.0
100
AcDbArc
 50
-90.0
 51
0.0
  0
ARC
  5
D7
330
4A
100
AcDbEntity
  8
Phantom
100
AcDbCircle
 10
177.052564155769
 20
156.1234191815988
 30
0.0
 40
55.00000000000038
100
AcDbArc
 50
-133.4540714537193
 51
-90.0
  0
CIRCLE
  5
D8
330
4A
100
AcDbEntity
  8
Verdeckt
100
AcDbCircle
 10
45.20322382423983
 20
111.6234191815988
 30
0.0
 40
6.199999999999605
  0
CIRCLE
  5
D9
330
4A
100
AcDbEntity
  8
Verdeckt
100
AcDbCircle
 10
45.20322382423983
 20
111.6234191815988
 30
0.0
 40
3.199999999999605
  0
CIRCLE
  5
DA
330
4A
100
AcDbEntity
  8
Verdeckt
100
AcDbCircle
 10
103.2032238242398
 20
111.6234191815988
 30
0.0
 40
3.199999999999605
  0
CIRCLE
  5
DB
330
4A
100
AcDbEntity
  8
Verdeckt
100
AcDbCircle
 10
103.2032238242398
 20
111.6234191815988
 30
0.0
 40
6.199999999999605
  0
CIRCLE
  5
DC
330
4A
100
AcDbEntity
  8
Phantom
100
AcDbCircle
 10
164.2032238242401
 20
137.1234191815988
 30
0.0
 40
10.0
  0
ENDBLK
  5
4C
330
4A
100
AcDbEntity
  8
0
100
AcDbBlockEnd
  0
BLOCK
  5
4F
330
4D
100
AcDbEntity
  8
0
100
AcDbBlockBegin
  2
1__2
 70
     0
 71
     0
 10
98.19361444599052
 20
126.3734191815999
 30
0.0
  3
1__2
  1

  0
INSERT
  5
4E
330
4D
100
AcDbEntity
  8
0
100
AcDbBlockReference
  2
Top__1
 10
98.19361444599052
 20
126.3734191815999
 30
0.0
  0
ENDBLK
  5
50
330
4D
100
AcDbEntity
  8
0
100
AcDbBlockEnd
  0
BLOCK
  5
53
330
51
100
AcDbEntity
  8
0
100
AcDbBlockBegin
  2
1__3
 70
     0
 71
     0
 10
98.19361444599052
 20
126.3734191815999
 30
0.0
  3
1__3
  1

  0
INSERT
  5
52
330
51
100
AcDbEntity
  8
1
100
AcDbBlockReference
  2
1__2
 10
98.19361444599052
 20
126.3734191815999
 30
0.0
  0
ENDBLK
  5
54
330
51
100
AcDbEntity
  8
0
100
AcDbBlockEnd
  0
BLOCK
  5
57
330
55
100
AcDbEntity
  8
0
100
AcDbBlockBegin
  2
SD_drawing__4
 70
     0
 71
     0
 10
98.19361444599052
 20
126.3734191815999
 30
0.0
  3
SD_drawing__4
  1

  0
INSERT
  5
56
330
55
100
AcDbEntity
  8
1
100
AcDbBlockReference
  2
1__3
 10
98.19361444599052
 20
126.3734191815999
 30
0.0
  0
ENDBLK
  5
58
330
55
100
AcDbEntity
  8
0
100
AcDbBlockEnd
  0
BLOCK
  5
5A
330
59
100
AcDbEntity
  8
0
100
AcDbBlockBegin
  2
a3kl
 70
     0
 71
     0
 10
149.4573969422535
 20
67.69787335430209
 30
0.0
  3
a3kl
  1

  0
POINT
  5
DD
330
59
100
AcDbEntity
  8
1
 62
     3
 60
     1
100
AcDbPoint
 10
272.4573969422535
 20
-69.8021266456979
 30
0.0
  0
POINT
  5
DE
330
59
100
AcDbEntity
  8
1
 62
     3
 60
     1
100
AcDbPoint
 10
299.4573969422535
 20
-69.8021266456979
 30
0.0
  0
POINT
  5
DF
330
59
100
AcDbEntity
  8
1
 62
     3
 60
     1
100
AcDbPoint
 10
277.4906980143419
 20
-71.5521266456979
 30
0.0
  0
POINT
  5
E0
330
59
100
AcDbEntity
  8
1
 62
     3
 60
     1
100
AcDbPoint
 10
277.4906980143419
 20
-73.5521266456979
 30
0.0
  0
POINT
  5
E1
330
59
100
AcDbEntity
  8
1
 62
     3
 60
     1
100
AcDbPoint
 10
276.7778559086357
 20
-72.5521266456979
 30
0.0
  0
POINT
  5
E2
330
59
100
AcDbEntity
  8
1
 62
     3
 60
     1
100
AcDbPoint
 10
285.1755070775628
 20
-72.5521266456979
 30
0.0
  0
POINT
  5
E3
330
59
100
AcDbEntity
  8
1
 62
     3
 60
     1
100
AcDbPoint
 10
291.3919501506646
 20
-72.5521266456979
 30
0.0
  0
POINT
  5
E4
330
59
100
AcDbEntity
  8
1
 62
     3
 60
     1
100
AcDbPoint
 10
288.8835608404656
 20
-72.5521266456979
 30
0.0
  0
POINT
  5
E5
330
59
100
AcDbEntity
  8
1
 62
     3
 60
     1
100
AcDbPoint
 10
294.0366649668527
 20
-72.5521266456979
 30
0.0
  0
POINT
  5
E6
330
59
100
AcDbEntity
  8
1
 62
     3
 60
     1
100
AcDbPoint
 10
291.3919501506646
 20
-74.97462913258805
 30
0.0
  0
POINT
  5
E7
330
59
100
AcDbEntity
  8
1
 62
     3
 60
     1
100
AcDbPoint
 10
291.3919501506646
 20
-70.09417601817917
 30
0.0
  0
LINE
  5
E8
330
59
100
AcDbEntity
  8
0
  6
Continuous
 62
     3
100
AcDbLine
 10
-40.5426030577466
 20
-53.8021266456979
 30
0.0
 11
-40.5426030577466
 21
210.6978733543021
 31
0.0
  0
LINE
  5
E9
330
59
100
AcDbEntity
  8
0
  6
Continuous
 62
     2
100
AcDbLine
 10
-55.5426030577466
 20
-75.3021266456979
 30
0.0
 11
-55.5426030577466
 21
210.6978733543021
 31
0.0
  0
LINE
  5
EA
330
59
100
AcDbEntity
  8
0
  6
Continuous
 62
     2
100
AcDbLine
 10
-55.5426030577466
 20
210.6978733543021
 30
0.0
 11
-40.5426030577466
 21
210.6978733543021
 31
0.0
  0
LINE
  5
EB
330
59
100
AcDbEntity
  8
1
  6
Continuous
 62
     2
100
AcDbLine
 10
-55.5426030577466
 20
-75.3021266456979
 30
0.0
 11
175.4573969422535
 21
-75.3021266456979
 31
0.0
  0
LINE
  5
EC
330
59
100
AcDbEntity
  8
0
  6
Continuous
 62
     2
100
AcDbLine
 10
-40.5426030577466
 20
210.6978733543021
 30
0.0
 11
354.4573969422535
 21
210.6978733543021
 31
0.0
  0
LINE
  5
ED
330
59
100
AcDbEntity
  8
0
  6
Continuous
 62
     2
100
AcDbLine
 10
354.4573969422535
 20
210.6978733543021
 30
0.0
 11
354.4573969422535
 21
-75.3021266456979
 31
0.0
  0
LINE
  5
EE
330
59
100
AcDbEntity
  8
0
  6
Continuous
 62
     1
100
AcDbLine
 10
175.4573969422535
 20
-75.3021266456979
 30
0.0
 11
175.4573969422535
 21
-32.30212664569789
 31
0.0
  0
LINE
  5
EF
330
59
100
AcDbEntity
  8
0
  6
Continuous
 62
     3
100
AcDbLine
 10
180.9573969422535
 20
-75.3021266456979
 30
0.0
 11
180.9573969422535
 21
-32.3021266456979
 31
0.0
  0
LINE
  5
F0
330
59
100
AcDbEntity
  8
0
  6
Continuous
 62
     1
100
AcDbLine
 10
222.4573969422535
 20
-69.43545998044789
 30
0.0
 11
222.4573969422535
 21
-75.3021266456979
 31
0.0
  0
LINE
  5
F1
330
59
100
AcDbEntity
  8
0
  6
Continuous
 62
     1
100
AcDbLine
 10
257.4573969422535
 20
-62.3021266456979
 30
0.0
 11
240.4573969422535
 21
-62.3021266456979
 31
0.0
  0
LINE
  5
F2
330
59
100
AcDbEntity
  8
0
  6
Continuous
 62
     1
100
AcDbLine
 10
240.4573969422535
 20
-62.3021266456979
 30
0.0
 11
222.4573969422535
 21
-62.3021266456979
 31
0.0
  0
LINE
  5
F3
330
59
100
AcDbEntity
  8
0
  6
Continuous
 62
     1
100
AcDbLine
 10
272.4573969422535
 20
-55.4687933556979
 30
0.0
 11
299.4573969422535
 21
-55.4687933556979
 31
0.0
  0
LINE
  5
F4
330
59
100
AcDbEntity
  8
0
  6
Continuous
 62
     1
100
AcDbLine
 10
272.4573969422535
 20
-49.3021266456979
 30
0.0
 11
354.4573969422535
 21
-49.3021266456979
 31
0.0
  0
LINE
  5
F5
330
59
100
AcDbEntity
  8
0
  6
Continuous
 62
     1
100
AcDbLine
 10
272.4573969422535
 20
-49.3021266456979
 30
0.0
 11
272.4573969422535
 21
-69.8021266456979
 31
0.0
  0
LINE
  5
F6
330
59
100
AcDbEntity
  8
0
  6
Continuous
 62
     1
100
AcDbLine
 10
272.4573969422535
 20
-62.3021266456979
 30
0.0
 11
257.4573969422535
 21
-62.3021266456979
 31
0.0
  0
LINE
  5
F7
330
59
100
AcDbEntity
  8
0
  6
Continuous
 62
     1
100
AcDbLine
 10
263.4573969422535
 20
-49.3021266456979
 30
0.0
 11
222.4573969422535
 21
-49.3021266456979
 31
0.0
  0
LINE
  5
F8
330
59
100
AcDbEntity
  8
0
  6
Continuous
 62
     7
100
AcDbLine
 10
228.5173937128436
 20
-36.43129445535438
 30
0.0
 11
228.5173937128436
 21
-36.54302749421831
 31
0.0
  0
LINE
  5
F9
330
59
100
AcDbEntity
  8
0
  6
Continuous
 62
     7
100
AcDbLine
 10
236.6174598888055
 20
-35.08091953601229
 30
0.0
 11
233.6160059796645
 21
-35.08091953601229
 31
0.0
  0
LINE
  5
FA
330
59
100
AcDbEntity
  8
0
  6
Continuous
 62
     7
100
AcDbLine
 10
234.8506103871245
 20
-36.83854251982839
 30
0.0
 11
236.7525910484815
 21
-35.5191266645779
 31
0.0
  0
LINE
  5
FB
330
59
100
AcDbEntity
  8
0
  6
Continuous
 62
     7
100
AcDbLine
 10
236.6948987593055
 20
-36.83854251982839
 30
0.0
 11
234.8506103871245
 21
-36.83854251982839
 31
0.0
  0
LINE
  5
FC
330
59
100
AcDbEntity
  8
0
  6
Continuous
 62
     7
100
AcDbLine
 10
236.7525910484815
 20
-37.19777157057789
 30
0.0
 11
236.7525910484815
 21
-36.8960893218003
 31
0.0
  0
LINE
  5
FD
330
59
100
AcDbEntity
  8
0
  6
Continuous
 62
     7
100
AcDbLine
 10
233.6160059796645
 20
-37.25531837254967
 30
0.0
 11
236.6948987593055
 21
-37.25531837254967
 31
0.0
  0
LINE
  5
FE
330
59
100
AcDbEntity
  8
0
  6
Continuous
 62
     7
100
AcDbLine
 10
233.5583136904885
 20
-36.78854251982839
 30
0.0
 11
233.5583136904885
 21
-37.19777157057789
 31
0.0
  0
LINE
  5
FF
330
59
100
AcDbEntity
  8
0
  6
Continuous
 62
     7
100
AcDbLine
 10
235.4967719615525
 20
-35.4694179668499
 30
0.0
 11
233.5583136904885
 21
-36.78854251982839
 31
0.0
  0
LINE
  5
100
330
59
100
AcDbEntity
  8
0
  6
Continuous
 62
     7
100
AcDbLine
 10
233.6160059796645
 20
-35.4694179668499
 30
0.0
 11
235.4967719615525
 21
-35.4694179668499
 31
0.0
  0
LINE
  5
101
330
59
100
AcDbEntity
  8
0
  6
Continuous
 62
     7
100
AcDbLine
 10
233.5583136904885
 20
-35.1386118251875
 30
0.0
 11
233.5583136904885
 21
-35.41172567767481
 31
0.0
  0
LINE
  5
102
330
59
100
AcDbEntity
  8
0
  6
Continuous
 62
     7
100
AcDbLine
 10
230.6644409551545
 20
-35.9238115680532
 30
0.0
 11
230.6644409551545
 21
-35.5257611928669
 31
0.0
  0
LINE
  5
103
330
59
100
AcDbEntity
  8
0
  6
Continuous
 62
     7
100
AcDbLine
 10
233.0367552926595
 20
-35.98015479407019
 30
0.0
 11
230.7221464704395
 21
-35.98015479407019
 31
0.0
  0
LINE
  5
104
330
59
100
AcDbEntity
  8
0
  6
Continuous
 62
     7
100
AcDbLine
 10
233.0367552926595
 20
-36.32317655432038
 30
0.0
 11
233.0367552926595
 21
-35.98015479407019
 31
0.0
  0
LINE
  5
105
330
59
100
AcDbEntity
  8
0
  6
Continuous
 62
     7
100
AcDbLine
 10
230.7221464704395
 20
-36.32317655432038
 30
0.0
 11
233.0367552926595
 21
-36.32317655432038
 31
0.0
  0
LINE
  5
106
330
59
100
AcDbEntity
  8
0
  6
Continuous
 62
     7
100
AcDbLine
 10
233.0367552926595
 20
-36.83854251982839
 30
0.0
 11
230.7221464704395
 21
-36.83854251982839
 31
0.0
  0
LINE
  5
107
330
59
100
AcDbEntity
  8
0
  6
Continuous
 62
     7
100
AcDbLine
 10
233.0367552926595
 20
-37.25468351929879
 30
0.0
 11
233.0367552926595
 21
-36.83854251982839
 31
0.0
  0
LINE
  5
108
330
59
100
AcDbEntity
  8
0
  6
Continuous
 62
     7
100
AcDbLine
 10
229.9575318602825
 20
-37.25468351929879
 30
0.0
 11
233.0367552926595
 21
-37.25468351929879
 31
0.0
  0
LINE
  5
109
330
59
100
AcDbEntity
  8
0
  6
Continuous
 62
     7
100
AcDbLine
 10
229.8198480614945
 20
-35.21860333480041
 30
0.0
 11
229.8198480614945
 21
-37.11699972051071
 31
0.0
  0
LINE
  5
10A
330
59
100
AcDbEntity
  8
0
  6
Continuous
 62
     7
100
AcDbLine
 10
233.0367552926595
 20
-35.08091953601229
 30
0.0
 11
229.9575318602825
 21
-35.08091953601229
 31
0.0
  0
LINE
  5
10B
330
59
100
AcDbEntity
  8
0
  6
Continuous
 62
     7
100
AcDbLine
 10
233.0367552926595
 20
-35.4694179668499
 30
0.0
 11
233.0367552926595
 21
-35.08091953601229
 31
0.0
  0
LINE
  5
10C
330
59
100
AcDbEntity
  8
0
  6
Continuous
 62
     7
100
AcDbLine
 10
230.7221464704395
 20
-35.4694179668499
 30
0.0
 11
233.0367552926595
 21
-35.4694179668499
 31
0.0
  0
LINE
  5
10D
330
59
100
AcDbEntity
  8
0
  6
Continuous
 62
     7
100
AcDbLine
 10
227.7042921856495
 20
-36.0301547940702
 30
0.0
 11
227.7042921856495
 21
-36.3731765543204
 31
0.0
  0
LINE
  5
10E
330
59
100
AcDbEntity
  8
0
  6
Continuous
 62
     7
100
AcDbLine
 10
229.3104312320875
 20
-36.0301547940702
 30
0.0
 11
227.7042921856495
 21
-36.0301547940702
 31
0.0
  0
LINE
  5
10F
330
59
100
AcDbEntity
  8
0
  6
Continuous
 62
     7
100
AcDbLine
 10
229.3104312320875
 20
-36.78985190465841
 30
0.0
 11
229.3104312320875
 21
-36.0301547940702
 31
0.0
  0
LINE
  5
110
330
59
100
AcDbEntity
  8
0
  6
Continuous
 62
     7
100
AcDbLine
 10
228.7020301999795
 20
-35.08091953601229
 30
0.0
 11
226.7249913678135
 21
-35.08091953601229
 31
0.0
  0
LINE
  5
111
330
59
100
AcDbEntity
  8
0
  6
Continuous
 62
     7
100
AcDbLine
 10
229.3104312320875
 20
-35.7381116856742
 30
0.0
 11
229.3104312320875
 21
-35.55039351504991
 31
0.0
  0
LINE
  5
112
330
59
100
AcDbEntity
  8
0
  6
Continuous
 62
     7
100
AcDbLine
 10
228.5165604679515
 20
-35.7381116856742
 30
0.0
 11
229.3104312320875
 21
-35.7381116856742
 31
0.0
  0
LINE
  5
113
330
59
100
AcDbEntity
  8
0
  6
Continuous
 62
     7
100
AcDbLine
 10
228.5165604679515
 20
-35.65806727162371
 30
0.0
 11
228.5165604679515
 21
-35.7381116856742
 31
0.0
  0
LINE
  5
114
330
59
100
AcDbEntity
  8
0
  6
Continuous
 62
     7
100
AcDbLine
 10
227.7042921856495
 20
-36.3731765543204
 30
0.0
 11
228.4579291250095
 21
-36.3731765543204
 31
0.0
  0
LINE
  5
115
330
59
100
AcDbEntity
  8
0
  6
Continuous
 62
     7
100
AcDbLine
 10
225.2890723492715
 20
-34.85742473947821
 30
0.0
 11
225.2890723492715
 21
-37.48282068023011
 31
0.0
  0
LINE
  5
116
330
59
100
AcDbEntity
  8
0
  6
Continuous
 62
     7
100
AcDbLine
 10
241.1402734831735
 20
-34.7209048383167
 30
0.0
 11
225.4255922504335
 21
-34.7209048383167
 31
0.0
  0
LINE
  5
117
330
59
100
AcDbEntity
  8
0
  6
Continuous
 62
     7
100
AcDbLine
 10
241.2767933843345
 20
-37.48282068023011
 30
0.0
 11
241.2767933843345
 21
-34.85742473947821
 31
0.0
  0
LINE
  5
118
330
59
100
AcDbEntity
  8
0
  6
Continuous
 62
     7
100
AcDbLine
 10
224.4306317190755
 20
-37.57315500738888
 30
0.0
 11
224.4306317190755
 21
-34.76709041231938
 31
0.0
  0
LINE
  5
119
330
59
100
AcDbEntity
  8
0
  6
Continuous
 62
     7
100
AcDbLine
 10
241.5259997375305
 20
-38.04393837125639
 30
0.0
 11
225.0398659960765
 21
-38.04393837125639
 31
0.0
  0
LINE
  5
11A
330
59
100
AcDbEntity
  8
0
  6
Continuous
 62
     7
100
AcDbLine
 10
242.1352340145305
 20
-34.76709041231938
 30
0.0
 11
242.1352340145305
 21
-37.57315500738888
 31
0.0
  0
LINE
  5
11B
330
59
100
AcDbEntity
  8
0
  6
Continuous
 62
     7
100
AcDbLine
 10
225.0398659960765
 20
-34.29630704845189
 30
0.0
 11
241.5259997375305
 21
-34.29630704845189
 31
0.0
  0
LINE
  5
11C
330
59
100
AcDbEntity
  8
0
  6
Continuous
 62
     7
100
AcDbLine
 10
241.1402734831735
 20
-37.6193405813915
 30
0.0
 11
225.4255922504335
 21
-37.6193405813915
 31
0.0
  0
LINE
  5
11D
330
59
100
AcDbEntity
  8
0
  6
Continuous
 62
     7
100
AcDbLine
 10
227.1029274437375
 20
-35.52066122113288
 30
0.0
 11
228.3782550420225
 21
-35.52066122113288
 31
0.0
  0
LINE
  5
11E
330
59
100
AcDbEntity
  8
0
  6
Continuous
 62
     7
100
AcDbLine
 10
227.1029274437375
 20
-36.77997063088029
 30
0.0
 11
228.3812705949645
 21
-36.77997063088029
 31
0.0
  0
LINE
  5
11F
330
59
100
AcDbEntity
  8
0
  6
Continuous
 62
     7
100
AcDbLine
 10
226.9607203155375
 20
-35.65864922043701
 30
0.0
 11
226.9607203155375
 21
-36.64198263157622
 31
0.0
  0
LINE
  5
120
330
59
100
AcDbEntity
  8
0
  6
Continuous
 62
     7
100
AcDbLine
 10
226.1165903357055
 20
-35.55039351504991
 30
0.0
 11
226.1165903357055
 21
-36.78985190465841
 31
0.0
  0
LINE
  5
121
330
59
100
AcDbEntity
  8
0
  6
Continuous
 62
     7
100
AcDbLine
 10
226.7249913678135
 20
-37.25932588369599
 30
0.0
 11
228.7020301999795
 21
-37.25932588369599
 31
0.0
  0
LINE
  5
122
330
59
100
AcDbEntity
  8
0
  6
Continuous
 62
     7
100
AcDbLine
 10
230.6644409551545
 20
-36.78219929381149
 30
0.0
 11
230.6644409551545
 21
-36.3795197803374
 31
0.0
  0
LINE
  5
123
330
59
100
AcDbEntity
  8
0
  6
Continuous
 62
     7
100
AcDbLine
 10
238.0769478342875
 20
-35.9238115680532
 30
0.0
 11
238.0769478342875
 21
-35.5257611928669
 31
0.0
  0
LINE
  5
124
330
59
100
AcDbEntity
  8
0
  6
Continuous
 62
     7
100
AcDbLine
 10
240.4492621717915
 20
-35.98015479407019
 30
0.0
 11
238.1346533495725
 21
-35.98015479407019
 31
0.0
  0
LINE
  5
125
330
59
100
AcDbEntity
  8
0
  6
Continuous
 62
     7
100
AcDbLine
 10
240.4492621717915
 20
-36.32317655432038
 30
0.0
 11
240.4492621717915
 21
-35.98015479407019
 31
0.0
  0
LINE
  5
126
330
59
100
AcDbEntity
  8
0
  6
Continuous
 62
     7
100
AcDbLine
 10
238.1346533495725
 20
-36.32317655432038
 30
0.0
 11
240.4492621717915
 21
-36.32317655432038
 31
0.0
  0
LINE
  5
127
330
59
100
AcDbEntity
  8
0
  6
Continuous
 62
     7
100
AcDbLine
 10
240.4492621717915
 20
-36.83854251982839
 30
0.0
 11
238.1346533495725
 21
-36.83854251982839
 31
0.0
  0
LINE
  5
128
330
59
100
AcDbEntity
  8
0
  6
Continuous
 62
     7
100
AcDbLine
 10
240.4492621717915
 20
-37.25468351929879
 30
0.0
 11
240.4492621717915
 21
-36.83854251982839
 31
0.0
  0
LINE
  5
129
330
59
100
AcDbEntity
  8
0
  6
Continuous
 62
     7
100
AcDbLine
 10
237.3700387394155
 20
-37.25468351929879
 30
0.0
 11
240.4492621717915
 21
-37.25468351929879
 31
0.0
  0
LINE
  5
12A
330
59
100
AcDbEntity
  8
0
  6
Continuous
 62
     7
100
AcDbLine
 10
237.2323549406265
 20
-35.21860333480041
 30
0.0
 11
237.2323549406265
 21
-37.11699972051071
 31
0.0
  0
LINE
  5
12B
330
59
100
AcDbEntity
  8
0
  6
Continuous
 62
     7
100
AcDbLine
 10
240.4492621717915
 20
-35.08091953601229
 30
0.0
 11
237.3700387394155
 21
-35.08091953601229
 31
0.0
  0
LINE
  5
12C
330
59
100
AcDbEntity
  8
0
  6
Continuous
 62
     7
100
AcDbLine
 10
240.4492621717915
 20
-35.4694179668499
 30
0.0
 11
240.4492621717915
 21
-35.08091953601229
 31
0.0
  0
LINE
  5
12D
330
59
100
AcDbEntity
  8
0
  6
Continuous
 62
     7
100
AcDbLine
 10
238.1346533495725
 20
-35.4694179668499
 30
0.0
 11
240.4492621717915
 21
-35.4694179668499
 31
0.0
  0
LINE
  5
12E
330
59
100
AcDbEntity
  8
0
  6
Continuous
 62
     7
100
AcDbLine
 10
238.0769478342875
 20
-36.78219929381149
 30
0.0
 11
238.0769478342875
 21
-36.3795197803374
 31
0.0
  0
LINE
  5
12F
330
59
100
AcDbEntity
  8
0
  6
Continuous
 62
     7
100
AcDbLine
 10
236.7525910484815
 20
-35.5191266645779
 30
0.0
 11
236.7525910484815
 21
-35.22011111127119
 31
0.0
  0
LINE
  5
130
330
59
100
AcDbEntity
  8
0
  6
Continuous
 62
     1
100
AcDbLine
 10
263.4573969422535
 20
-36.3257883842918
 30
0.0
 11
263.4573969422535
 21
-44.3021266456979
 31
0.0
  0
LINE
  5
131
330
59
100
AcDbEntity
  8
0
  6
Continuous
 62
     1
100
AcDbLine
 10
175.4573969422535
 20
-75.3021266456979
 30
0.0
 11
175.4573969422535
 21
-32.30212664569789
 31
0.0
  0
LINE
  5
132
330
59
100
AcDbEntity
  8
0
  6
Continuous
 62
     1
100
AcDbLine
 10
299.4573969422535
 20
-75.3021266456979
 30
0.0
 11
299.4573969422535
 21
-69.8021266456979
 31
0.0
  0
LINE
  5
133
330
59
100
AcDbEntity
  8
0
  6
Continuous
 62
     1
100
AcDbLine
 10
222.4573969422535
 20
-32.30212664569789
 30
0.0
 11
222.4573969422535
 21
-44.3021266456979
 31
0.0
  0
LINE
  5
134
330
59
100
AcDbEntity
  8
0
  6
Continuous
 62
     1
100
AcDbLine
 10
354.4573969422535
 20
-62.3021266456979
 30
0.0
 11
299.4573969422535
 21
-62.3021266456979
 31
0.0
  0
LINE
  5
135
330
59
100
AcDbEntity
  8
0
  6
Continuous
 62
     1
100
AcDbLine
 10
263.4573969422535
 20
-32.30212664569789
 30
0.0
 11
263.4573969422535
 21
-36.3257883842918
 31
0.0
  0
LINE
  5
136
330
59
100
AcDbEntity
  8
0
  6
Continuous
 62
     1
100
AcDbLine
 10
263.4573969422535
 20
-49.3021266456979
 30
0.0
 11
272.4573969422535
 21
-49.3021266456979
 31
0.0
  0
LINE
  5
137
330
59
100
AcDbEntity
  8
0
  6
Continuous
 62
     1
100
AcDbLine
 10
263.4573969422535
 20
-32.30212664569789
 30
0.0
 11
175.4573969422535
 21
-32.30212664569789
 31
0.0
  0
LINE
  5
138
330
59
100
AcDbEntity
  8
0
  6
Continuous
 62
     3
100
AcDbLine
 10
222.4573969422535
 20
-68.8021266456979
 30
0.0
 11
272.4573969422535
 21
-68.8021266456979
 31
0.0
  0
LINE
  5
139
330
59
100
AcDbEntity
  8
0
  6
Continuous
 62
     1
100
AcDbLine
 10
222.4573969422535
 20
-45.3021266456979
 30
0.0
 11
222.4573969422535
 21
-45.20153776673639
 31
0.0
  0
LINE
  5
13A
330
59
100
AcDbEntity
  8
0
  6
Continuous
 62
     1
100
AcDbLine
 10
263.4573969422535
 20
-32.30212664569789
 30
0.0
 11
354.4573969422535
 21
-32.30212664569789
 31
0.0
  0
LINE
  5
13B
330
59
100
AcDbEntity
  8
0
  6
Continuous
 62
     2
100
AcDbLine
 10
354.4573969422535
 20
-32.30212664569789
 30
0.0
 11
354.4573969422535
 21
-75.3021266456979
 31
0.0
  0
LINE
  5
13C
330
59
100
AcDbEntity
  8
0
  6
Continuous
 62
     1
100
AcDbLine
 10
299.4573969422535
 20
-62.3354600656979
 30
0.0
 11
272.4573969422535
 21
-62.3354600656979
 31
0.0
  0
LINE
  5
13D
330
59
100
AcDbEntity
  8
0
  6
Continuous
 62
     3
100
AcDbLine
 10
257.4573969422535
 20
-62.3021266456979
 30
0.0
 11
257.4573969422535
 21
-49.3021204127715
 31
0.0
  0
LINE
  5
13E
330
59
100
AcDbEntity
  8
0
  6
Continuous
 62
     3
100
AcDbLine
 10
240.4573969422535
 20
-62.3021266456979
 30
0.0
 11
240.4573969422535
 21
-49.3021266456979
 31
0.0
  0
LINE
  5
13F
330
59
100
AcDbEntity
  8
0
  6
Continuous
 62
     3
100
AcDbLine
 10
222.4573969422535
 20
-53.70212664569789
 30
0.0
 11
272.4573969422535
 21
-53.70212664569789
 31
0.0
  0
LINE
  5
140
330
59
100
AcDbEntity
  8
0
  6
Continuous
 62
     3
100
AcDbLine
 10
272.4573969422535
 20
-58.0021266456979
 30
0.0
 11
222.4573969422535
 21
-58.0021266456979
 31
0.0
  0
LINE
  5
141
330
59
100
AcDbEntity
  8
0
  6
Continuous
 62
     3
100
AcDbLine
 10
208.4573969422535
 20
-75.3021266456979
 30
0.0
 11
208.4573969422535
 21
-32.30212664569789
 31
0.0
  0
LINE
  5
142
330
59
100
AcDbEntity
  8
0
  6
Continuous
 62
     3
100
AcDbLine
 10
200.4573969422535
 20
-75.3021266456979
 30
0.0
 11
200.4573969422535
 21
-32.30212664569789
 31
0.0
  0
LINE
  5
143
330
59
100
AcDbEntity
  8
0
  6
Continuous
 62
     3
100
AcDbLine
 10
188.4573969422535
 20
-75.3021266456979
 30
0.0
 11
188.4573969422535
 21
-32.30212664569789
 31
0.0
  0
LINE
  5
144
330
59
100
AcDbEntity
  8
0
  6
Continuous
 62
     3
100
AcDbLine
 10
175.4573969422535
 20
-36.60212964569789
 30
0.0
 11
222.4573969422535
 21
-36.60212964569789
 31
0.0
  0
LINE
  5
145
330
59
100
AcDbEntity
  8
0
  6
Continuous
 62
     3
100
AcDbLine
 10
222.4573969422535
 20
-40.90213264569789
 30
0.0
 11
175.4573969422535
 21
-40.90213264569789
 31
0.0
  0
LINE
  5
146
330
59
100
AcDbEntity
  8
0
  6
Continuous
 62
     3
100
AcDbLine
 10
175.4573969422535
 20
-45.20213564569789
 30
0.0
 11
222.4573969422535
 21
-45.20213564569789
 31
0.0
  0
LINE
  5
147
330
59
100
AcDbEntity
  8
0
  6
Continuous
 62
     3
100
AcDbLine
 10
222.4573969422535
 20
-49.5021386456979
 30
0.0
 11
175.4573969422535
 21
-49.5021386456979
 31
0.0
  0
LINE
  5
148
330
59
100
AcDbEntity
  8
0
  6
Continuous
 62
     3
100
AcDbLine
 10
175.4573969422535
 20
-53.8021266456979
 30
0.0
 11
222.4573969422535
 21
-53.8021266456979
 31
0.0
  0
LINE
  5
149
330
59
100
AcDbEntity
  8
0
  6
Continuous
 62
     3
100
AcDbLine
 10
222.4573969422535
 20
-58.1021296456979
 30
0.0
 11
175.4573969422535
 21
-58.1021296456979
 31
0.0
  0
LINE
  5
14A
330
59
100
AcDbEntity
  8
0
  6
Continuous
 62
     3
100
AcDbLine
 10
175.4573969422535
 20
-62.40213264569789
 30
0.0
 11
222.4573969422535
 21
-62.40213264569789
 31
0.0
  0
LINE
  5
14B
330
59
100
AcDbEntity
  8
0
  6
Continuous
 62
     3
100
AcDbLine
 10
222.4573969422535
 20
-66.70213564569791
 30
0.0
 11
175.4573969422535
 21
-66.70213564569791
 31
0.0
  0
LINE
  5
14C
330
59
100
AcDbEntity
  8
0
  6
Continuous
 62
     4
100
AcDbLine
 10
175.4573969422535
 20
-71.00212364569788
 30
0.0
 11
222.4573969422535
 21
-71.00212364569788
 31
0.0
  0
LINE
  5
14D
330
59
100
AcDbEntity
  8
0
  6
Continuous
 62
     2
100
AcDbLine
 10
354.4573969422535
 20
-75.3021266456979
 30
0.0
 11
175.4573969422535
 21
-75.3021266456979
 31
0.0
  0
LINE
  5
14E
330
59
100
AcDbEntity
  8
0
  6
Continuous
 62
     1
100
AcDbLine
 10
222.4573969422535
 20
-44.3021266456979
 30
0.0
 11
263.4573969422535
 21
-44.3021266456979
 31
0.0
  0
LINE
  5
14F
330
59
100
AcDbEntity
  8
0
  6
Continuous
 62
     1
100
AcDbLine
 10
263.4573969422535
 20
-44.3021266456979
 30
0.0
 11
263.4573969422535
 21
-49.3021266456979
 31
0.0
  0
LINE
  5
150
330
59
100
AcDbEntity
  8
0
  6
Continuous
 62
     1
100
AcDbLine
 10
222.4573969422535
 20
-44.3021266456979
 30
0.0
 11
222.4573969422535
 21
-69.43545998044789
 31
0.0
  0
LINE
  5
151
330
59
100
AcDbEntity
  8
1
  6
Continuous
 62
     1
100
AcDbLine
 10
272.4573969422535
 20
-69.8021266456979
 30
0.0
 11
299.4573969422535
 21
-69.8021266456979
 31
0.0
  0
LINE
  5
152
330
59
100
AcDbEntity
  8
0
  6
Continuous
 62
     1
100
AcDbLine
 10
272.4573969422535
 20
-69.8021266456979
 30
0.0
 11
272.4573969422535
 21
-75.3021266456979
 31
0.0
  0
LINE
  5
153
330
59
100
AcDbEntity
  8
0
  6
Continuous
 62
     1
100
AcDbLine
 10
299.4573969422535
 20
-69.8021266456979
 30
0.0
 11
299.4573969422535
 21
-49.3021266456979
 31
0.0
  0
LINE
  5
154
330
59
100
AcDbEntity
  8
1
  6
Continuous
 62
     4
100
AcDbLine
 10
277.4906980143419
 20
-71.5521266456979
 30
0.0
 11
284.4906980143419
 21
-70.5521266456979
 31
0.0
  0
LINE
  5
155
330
59
100
AcDbEntity
  8
1
  6
Continuous
 62
     4
100
AcDbLine
 10
284.4906980143419
 20
-70.5521266456979
 30
0.0
 11
284.4906980143419
 21
-74.5521266456979
 31
0.0
  0
LINE
  5
156
330
59
100
AcDbEntity
  8
1
  6
Continuous
 62
     4
100
AcDbLine
 10
284.4906980143419
 20
-74.5521266456979
 30
0.0
 11
277.4906980143419
 21
-73.5521266456979
 31
0.0
  0
LINE
  5
157
330
59
100
AcDbEntity
  8
1
  6
Continuous
 62
     4
100
AcDbLine
 10
277.4906980143419
 20
-73.5521266456979
 30
0.0
 11
277.4906980143419
 21
-71.5521266456979
 31
0.0
  0
LINE
  5
158
330
59
100
AcDbEntity
  8
1
  6
DOT_CENTER
 62
     7
100
AcDbLine
 10
276.7778559086357
 20
-72.5521266456979
 30
0.0
 11
285.1755070775628
 21
-72.5521266456979
 31
0.0
  0
LINE
  5
159
330
59
100
AcDbEntity
  8
1
  6
DOT_CENTER
 62
     7
100
AcDbLine
 10
288.8835608404656
 20
-72.5521266456979
 30
0.0
 11
294.0366649668527
 21
-72.5521266456979
 31
0.0
  0
LINE
  5
15A
330
59
100
AcDbEntity
  8
1
  6
DOT_CENTER
 62
     7
100
AcDbLine
 10
291.3919501506646
 20
-74.97462913258805
 30
0.0
 11
291.3919501506646
 21
-70.09417601817917
 31
0.0
  0
LINE
  5
15B
330
59
100
AcDbEntity
  8
0
  6
Continuous
 62
     1
100
AcDbLine
 10
175.4573969422535
 20
-75.3021266456979
 30
0.0
 11
175.4573969422535
 21
-32.30212664569789
 31
0.0
  0
ARC
  5
15C
330
59
100
AcDbEntity
  8
0
  6
Continuous
 62
     7
100
AcDbCircle
 10
225.4255922504335
 20
-34.85742473947821
 30
0.0
 40
0.1365199011615132
100
AcDbArc
 50
90.0
 51
180.0
  0
ARC
  5
15D
330
59
100
AcDbEntity
  8
0
  6
Continuous
 62
     7
100
AcDbCircle
 10
225.4255922504335
 20
-37.48282068023011
 30
0.0
 40
0.1365199011620177
100
AcDbArc
 50
180.0
 51
-90.0
  0
ARC
  5
15E
330
59
100
AcDbEntity
  8
0
  6
Continuous
 62
     7
100
AcDbCircle
 10
241.1402734831735
 20
-34.85742473947821
 30
0.0
 40
0.1365199011609946
100
AcDbArc
 50
0.0
 51
90.0
  0
ARC
  5
15F
330
59
100
AcDbEntity
  8
0
  6
Continuous
 62
     7
100
AcDbCircle
 10
241.1402734831735
 20
-37.48282068023011
 30
0.0
 40
0.1365199011613853
100
AcDbArc
 50
-90.0
 51
0.0
  0
ARC
  5
160
330
59
100
AcDbEntity
  8
0
  6
Continuous
 62
     7
100
AcDbCircle
 10
228.4579291250095
 20
-36.43265674462187
 30
0.0
 40
0.0594801903017104
100
AcDbArc
 50
1.31237392904223
 51
90.0
  0
ARC
  5
161
330
59
100
AcDbEntity
  8
0
  6
Continuous
 62
     7
100
AcDbCircle
 10
230.7213399579655
 20
-35.9232588224532
 30
0.0
 40
0.0569016875723858
100
AcDbArc
 50
-179.4434174191571
 51
-89.18787455656576
  0
ARC
  5
162
330
59
100
AcDbEntity
  8
0
  6
Continuous
 62
     7
100
AcDbCircle
 10
230.7213399579655
 20
-35.52631393846681
 30
0.0
 40
0.056901687572533
100
AcDbArc
 50
89.18787455656455
 51
179.4434174192573
  0
ARC
  5
163
330
59
100
AcDbEntity
  8
0
  6
Continuous
 62
     7
100
AcDbCircle
 10
230.7213399579655
 20
-36.38007252593729
 30
0.0
 40
0.056901687572533
100
AcDbArc
 50
89.18787455656455
 51
179.4434174192716
  0
ARC
  5
164
330
59
100
AcDbEntity
  8
0
  6
Continuous
 62
     7
100
AcDbCircle
 10
230.7213399579655
 20
-36.78164654821152
 30
0.0
 40
0.0569016875723855
100
AcDbArc
 50
-179.4434174191929
 51
-89.18787455656404
  0
ARC
  5
165
330
59
100
AcDbEntity
  8
0
  6
Continuous
 62
     7
100
AcDbCircle
 10
238.1338468370985
 20
-35.9232588224532
 30
0.0
 40
0.0569016875723858
100
AcDbArc
 50
-179.4434174191571
 51
-89.18787455656576
  0
ARC
  5
166
330
59
100
AcDbEntity
  8
0
  6
Continuous
 62
     7
100
AcDbCircle
 10
238.1338468370985
 20
-35.52631393846681
 30
0.0
 40
0.056901687572533
100
AcDbArc
 50
89.18787455656455
 51
179.4434174192573
  0
ARC
  5
167
330
59
100
AcDbEntity
  8
0
  6
Continuous
 62
     7
100
AcDbCircle
 10
238.1338468370985
 20
-36.38007252593729
 30
0.0
 40
0.056901687572533
100
AcDbArc
 50
89.18787455656455
 51
179.4434174192716
  0
ARC
  5
168
330
59
100
AcDbEntity
  8
0
  6
Continuous
 62
     7
100
AcDbCircle
 10
238.1338468370985
 20
-36.78164654821152
 30
0.0
 40
0.0569016875723855
100
AcDbArc
 50
-179.4434174191929
 51
-89.18787455656404
  0
ARC
  5
169
330
59
100
AcDbEntity
  8
0
  6
Continuous
 62
     7
100
AcDbCircle
 10
233.6160059796645
 20
-35.1386118251875
 30
0.0
 40
0.0576922891752147
100
AcDbArc
 50
90.0
 51
180.0
  0
ARC
  5
16A
330
59
100
AcDbEntity
  8
0
  6
Continuous
 62
     7
100
AcDbCircle
 10
233.6160059796645
 20
-35.41172567767481
 30
0.0
 40
0.0576922891760034
100
AcDbArc
 50
180.0
 51
-90.0
  0
ARC
  5
16B
330
59
100
AcDbEntity
  8
0
  6
Continuous
 62
     7
100
AcDbCircle
 10
233.6159332360625
 20
-37.19769882697619
 30
0.0
 40
0.0576195914927011
100
AcDbArc
 50
-179.9276651853455
 51
-89.92766518504104
  0
ARC
  5
16C
330
59
100
AcDbEntity
  8
0
  6
Continuous
 62
     7
100
AcDbCircle
 10
236.6949715029075
 20
-37.19769882697619
 30
0.0
 40
0.0576195914921757
100
AcDbArc
 50
-90.07233481495898
 51
-0.07233481465449
  0
ARC
  5
16D
330
59
100
AcDbEntity
  8
0
  6
Continuous
 62
     7
100
AcDbCircle
 10
236.6949715029075
 20
-36.896162065402
 30
0.0
 40
0.0576195914927011
100
AcDbArc
 50
0.07233481466155
 51
90.07233481495878
  0
CIRCLE
  5
16E
330
59
100
AcDbEntity
  8
1
  6
Continuous
 62
     4
100
AcDbCircle
 10
291.3919501506646
 20
-72.5521266456979
 30
0.0
 40
1.0
  0
CIRCLE
  5
16F
330
59
100
AcDbEntity
  8
1
  6
Continuous
 62
     4
100
AcDbCircle
 10
291.3919501506646
 20
-72.5521266456979
 30
0.0
 40
2.0
  0
SPLINE
  5
170
330
59
100
AcDbEntity
  8
0
  6
Continuous
 62
     7
100
AcDbSpline
210
0.0
220
0.0
230
1.0
 70
     8
 71
     3
 72
    13
 73
     9
 74
     7
 42
0.0000000001
 43
0.0000000001
 44
0.00000001
 40
0.0
 40
0.0
 40
0.0
 40
0.0
 40
0.1601947109558155
 40
0.3210951627356168
 40
0.4607710778824439
 40
0.6002079329854587
 40
0.7244156662364374
 40
0.8468166043873789
 40
0.8468166043873789
 40
0.8468166043873789
 40
0.8468166043873789
 10
225.0398659960765
 20
-34.29630704845189
 30
0.0
 10
224.9863617564181
 20
-34.29954801461466
 30
0.0
 10
224.8791175631634
 20
-34.30604422507784
 30
0.0
 10
224.7322196653999
 20
-34.35683964352805
 30
0.0
 10
224.605259702359
 20
-34.43259960567561
 30
0.0
 10
224.5103905862452
 20
-34.52958033632894
 30
0.0
 10
224.4449553480052
 20
-34.64378713773412
 30
0.0
 10
224.4353828842846
 20
-34.72619056555223
 30
0.0
 10
224.4306317190755
 20
-34.76709041231938
 30
0.0
 11
225.0398659960765
 21
-34.29630704845189
 31
0.0
 11
224.8805669775985
 21
-34.31322355311976
 31
0.0
 11
224.7280604671207
 21
-34.36451409459499
 31
0.0
 11
224.6089174317377
 21
-34.4374133291028
 31
0.0
 11
224.5116548652214
 21
-34.53732643993261
 31
0.0
 11
224.4528245965424
 21
-34.64671821515586
 31
0.0
 11
224.4306317190755
 21
-34.76709041231938
 31
0.0
  0
SPLINE
  5
171
330
59
100
AcDbEntity
  8
0
  6
Continuous
 62
     7
100
AcDbSpline
210
0.0
220
0.0
230
1.0
 70
     8
 71
     3
 72
    13
 73
     9
 74
     7
 42
0.0000000001
 43
0.0000000001
 44
0.00000001
 40
0.0
 40
0.0
 40
0.0
 40
0.0
 40
0.160194710955814
 40
0.3210951627356199
 40
0.4607710778824581
 40
0.6002079329855035
 40
0.7244156662364947
 40
0.8468166043873804
 40
0.8468166043873804
 40
0.8468166043873804
 40
0.8468166043873804
 10
225.0398659960765
 20
-38.04393837125639
 30
0.0
 10
224.9863617564182
 20
-38.04069740509362
 30
0.0
 10
224.8791175631634
 20
-38.03420119463046
 30
0.0
 10
224.7322196654
 20
-37.98340577618021
 30
0.0
 10
224.605259702359
 20
-37.90764581403265
 30
0.0
 10
224.5103905862451
 20
-37.81066508337926
 30
0.0
 10
224.4449553480053
 20
-37.69645828197412
 30
0.0
 10
224.4353828842846
 20
-37.61405485415601
 30
0.0
 10
224.4306317190755
 20
-37.57315500738888
 30
0.0
 11
225.0398659960765
 21
-38.04393837125639
 31
0.0
 11
224.8805669775985
 21
-38.02702186658853
 31
0.0
 11
224.7280604671207
 21
-37.97573132511328
 31
0.0
 11
224.6089174317377
 21
-37.90283209060545
 31
0.0
 11
224.5116548652214
 21
-37.8029189797756
 31
0.0
 11
224.4528245965424
 21
-37.69352720455233
 31
0.0
 11
224.4306317190755
 21
-37.57315500738888
 31
0.0
  0
SPLINE
  5
172
330
59
100
AcDbEntity
  8
0
  6
Continuous
 62
     7
100
AcDbSpline
210
0.0
220
0.0
230
1.0
 70
     8
 71
     3
 72
    13
 73
     9
 74
     7
 42
0.0000000001
 43
0.0000000001
 44
0.00000001
 40
0.0
 40
0.0
 40
0.0
 40
0.0
 40
0.1601947109558988
 40
0.3210951627356508
 40
0.4607710778824162
 40
0.6002079329853228
 40
0.7244156662360852
 40
0.8468166043869296
 40
0.8468166043869296
 40
0.8468166043869296
 40
0.8468166043869296
 10
241.5259997375305
 20
-38.04393837125639
 30
0.0
 10
241.5795039771889
 20
-38.04069740509362
 30
0.0
 10
241.6867481704436
 20
-38.03420119463047
 30
0.0
 10
241.8336460682069
 20
-37.98340577618023
 30
0.0
 10
241.960606031248
 20
-37.90764581403265
 30
0.0
 10
242.0554751473616
 20
-37.81066508337933
 30
0.0
 10
242.120910385601
 20
-37.69645828197399
 30
0.0
 10
242.1304828493215
 20
-37.614054854156
 30
0.0
 10
242.1352340145305
 20
-37.57315500738888
 30
0.0
 11
241.5259997375305
 21
-38.04393837125639
 31
0.0
 11
241.6852987560085
 21
-38.02702186658853
 31
0.0
 11
241.8378052664863
 21
-37.97573132511328
 31
0.0
 11
241.9569483018692
 21
-37.90283209060545
 31
0.0
 11
242.0542108683853
 21
-37.8029189797756
 31
0.0
 11
242.1130411370639
 21
-37.69352720455233
 31
0.0
 11
242.1352340145305
 21
-37.57315500738888
 31
0.0
  0
SPLINE
  5
173
330
59
100
AcDbEntity
  8
0
  6
Continuous
 62
     7
100
AcDbSpline
210
0.0
220
0.0
230
1.0
 70
     8
 71
     3
 72
    13
 73
     9
 74
     7
 42
0.0000000001
 43
0.0000000001
 44
0.00000001
 40
0.0
 40
0.0
 40
0.0
 40
0.0
 40
0.1601947109559003
 40
0.3210951627356478
 40
0.4607710778824021
 40
0.6002079329852782
 40
0.724415666236028
 40
0.8468166043869284
 40
0.8468166043869284
 40
0.8468166043869284
 40
0.8468166043869284
 10
241.5259997375305
 20
-34.29630704845189
 30
0.0
 10
241.5795039771888
 20
-34.29954801461465
 30
0.0
 10
241.6867481704436
 20
-34.30604422507781
 30
0.0
 10
241.8336460682069
 20
-34.35683964352805
 30
0.0
 10
241.9606060312479
 20
-34.43259960567559
 30
0.0
 10
242.0554751473616
 20
-34.52958033632887
 30
0.0
 10
242.120910385601
 20
-34.64378713773423
 30
0.0
 10
242.1304828493215
 20
-34.72619056555224
 30
0.0
 10
242.1352340145305
 20
-34.76709041231938
 30
0.0
 11
241.5259997375305
 21
-34.29630704845189
 31
0.0
 11
241.6852987560085
 21
-34.31322355311976
 31
0.0
 11
241.8378052664863
 21
-34.36451409459499
 31
0.0
 11
241.9569483018692
 21
-34.4374133291028
 31
0.0
 11
242.0542108683853
 21
-34.53732643993261
 31
0.0
 11
242.1130411370639
 21
-34.64671821515586
 31
0.0
 11
242.1352340145305
 21
-34.76709041231938
 31
0.0
  0
SPLINE
  5
174
330
59
100
AcDbEntity
  8
0
  6
Continuous
 62
     7
100
AcDbSpline
210
0.0
220
0.0
230
1.0
 70
     8
 71
     3
 72
    13
 73
     9
 74
     7
 42
0.0000000001
 43
0.0000000001
 44
0.00000001
 40
0.0
 40
0.0
 40
0.0
 40
0.0
 40
0.1486423989486752
 40
0.2982382234602646
 40
0.4390496453781879
 40
0.5790300758309347
 40
0.7141201510144874
 40
0.8476890380265955
 40
0.8476890380265955
 40
0.8476890380265955
 40
0.8476890380265955
 10
226.7249913678135
 20
-35.08091953601229
 30
0.0
 10
226.6753585820301
 20
-35.08376818338417
 30
0.0
 10
226.5757746546842
 20
-35.08948374998873
 30
0.0
 10
226.4349700262964
 20
-35.1339859885736
 30
0.0
 10
226.3069113457275
 20
-35.20091062867654
 30
0.0
 10
226.2036373779925
 20
-35.29564318120883
 30
0.0
 10
226.1322348098972
 20
-35.41595987224515
 30
0.0
 10
226.1217854384558
 20
-35.5057517726102
 30
0.0
 10
226.1165903357055
 20
-35.55039351504991
 30
0.0
 11
226.7249913678135
 21
-35.08091953601229
 31
0.0
 11
226.5770712192658
 21
-35.09555485011403
 31
0.0
 11
226.4339376044971
 21
-35.13904828679746
 31
0.0
 11
226.310139532618
 21
-35.20614444124439
 31
0.0
 11
226.2076653249901
 21
-35.30150458847984
 31
0.0
 11
226.1411961367188
 21
-35.41911060628359
 31
0.0
 11
226.1165903357055
 21
-35.55039351504991
 31
0.0
  0
SPLINE
  5
175
330
59
100
AcDbEntity
  8
0
  6
Continuous
 62
     7
100
AcDbSpline
210
0.0
220
0.0
230
1.0
 70
     8
 71
     3
 72
    13
 73
     9
 74
     7
 42
0.0000000001
 43
0.0000000001
 44
0.00000001
 40
0.0
 40
0.0
 40
0.0
 40
0.0
 40
0.14864239894876
 40
0.298238223460295
 40
0.4390496453782684
 40
0.579030075831036
 40
0.7141201510145608
 40
0.8476890380266584
 40
0.8476890380266584
 40
0.8476890380266584
 40
0.8476890380266584
 10
228.7020301999795
 20
-35.08091953601229
 30
0.0
 10
228.7516629857629
 20
-35.08376818338416
 30
0.0
 10
228.8512469131088
 20
-35.08948374998873
 30
0.0
 10
228.9920515414966
 20
-35.13398598857361
 30
0.0
 10
229.1201102220655
 20
-35.20091062867654
 30
0.0
 10
229.2233841898006
 20
-35.2956431812088
 30
0.0
 10
229.2947867578958
 20
-35.41595987224515
 30
0.0
 10
229.3052361293372
 20
-35.5057517726102
 30
0.0
 10
229.3104312320875
 20
-35.55039351504991
 30
0.0
 11
228.7020301999795
 21
-35.08091953601229
 31
0.0
 11
228.8499503485272
 21
-35.09555485011403
 31
0.0
 11
228.9930839632959
 21
-35.13904828679746
 31
0.0
 11
229.1168820351751
 21
-35.20614444124439
 31
0.0
 11
229.219356242803
 21
-35.30150458847984
 31
0.0
 11
229.2858254310742
 21
-35.41911060628359
 31
0.0
 11
229.3104312320875
 21
-35.55039351504991
 31
0.0
  0
SPLINE
  5
176
330
59
100
AcDbEntity
  8
0
  6
Continuous
 62
     7
100
AcDbSpline
210
0.0
220
0.0
230
1.0
 70
     8
 71
     3
 72
    13
 73
     9
 74
     7
 42
0.0000000001
 43
0.0000000001
 44
0.00000001
 40
0.0
 40
0.0
 40
0.0
 40
0.0
 40
0.1486423989487593
 40
0.2982382234602964
 40
0.4390496453782833
 40
0.5790300758310557
 40
0.7141201510145618
 40
0.8476890380266034
 40
0.8476890380266034
 40
0.8476890380266034
 40
0.8476890380266034
 10
228.7020301999795
 20
-37.25932588369599
 30
0.0
 10
228.7516629857629
 20
-37.25647723632412
 30
0.0
 10
228.8512469131088
 20
-37.25076166971956
 30
0.0
 10
228.9920515414968
 20
-37.20625943113468
 30
0.0
 10
229.1201102220655
 20
-37.13933479103171
 30
0.0
 10
229.2233841898006
 20
-37.04460223849946
 30
0.0
 10
229.2947867578958
 20
-36.92428554746312
 30
0.0
 10
229.3052361293372
 20
-36.83449364709811
 30
0.0
 10
229.3104312320875
 20
-36.78985190465841
 30
0.0
 11
228.7020301999795
 21
-37.25932588369599
 31
0.0
 11
228.8499503485272
 21
-37.24469056959425
 31
0.0
 11
228.9930839632959
 21
-37.20119713291082
 31
0.0
 11
229.1168820351751
 21
-37.13410097846386
 31
0.0
 11
229.219356242803
 21
-37.03874083122841
 31
0.0
 11
229.2858254310742
 21
-36.92113481342468
 31
0.0
 11
229.3104312320875
 21
-36.78985190465841
 31
0.0
  0
SPLINE
  5
177
330
59
100
AcDbEntity
  8
0
  6
Continuous
 62
     7
100
AcDbSpline
210
0.0
220
0.0
230
1.0
 70
     8
 71
     3
 72
    13
 73
     9
 74
     7
 42
0.0000000001
 43
0.0000000001
 44
0.00000001
 40
0.0
 40
0.0
 40
0.0
 40
0.0
 40
0.032839465007422
 40
0.065597599595198
 40
0.1022664447831458
 40
0.1389211607506657
 40
0.1782532813533685
 40
0.2177267691612907
 40
0.2177267691612907
 40
0.2177267691612907
 40
0.2177267691612907
 10
227.1029274437375
 20
-35.52066122113288
 30
0.0
 10
227.0919445521012
 20
-35.5215213759454
 30
0.0
 10
227.070005969125
 20
-35.5232395553058
 30
0.0
 10
227.0382929000738
 20
-35.53699782321868
 30
0.0
 10
227.0087733980873
 20
-35.55677036250574
 30
0.0
 10
226.9826639258749
 20
-35.58416674837018
 30
0.0
 10
226.9641930280008
 20
-35.61904234685753
 30
0.0
 10
226.9618792698876
 20
-35.64543114986214
 30
0.0
 10
226.9607203155375
 20
-35.65864922043701
 30
0.0
 11
227.1029274437375
 21
-35.52066122113288
 31
0.0
 11
227.0703789118352
 21
-35.5250228186586
 31
0.0
 11
227.0399976152428
 21
-35.53727321453135
 31
0.0
 11
227.0096223266031
 21
-35.55781453988953
 31
0.0
 11
226.9845537646646
 21
-35.58455655561374
 31
0.0
 11
226.9667797341444
 21
-35.61964358384602
 31
0.0
 11
226.9607203155375
 21
-35.65864922043701
 31
0.0
  0
SPLINE
  5
178
330
59
100
AcDbEntity
  8
0
  6
Continuous
 62
     7
100
AcDbSpline
210
0.0
220
0.0
230
1.0
 70
     8
 71
     3
 72
    13
 73
     9
 74
     7
 42
0.0000000001
 43
0.0000000001
 44
0.00000001
 40
0.0
 40
0.0
 40
0.0
 40
0.0
 40
0.1486423989486745
 40
0.298238223460266
 40
0.4390496453782028
 40
0.5790300758309544
 40
0.7141201510144886
 40
0.8476890380265407
 40
0.8476890380265407
 40
0.8476890380265407
 40
0.8476890380265407
 10
226.7249913678135
 20
-37.25932588369599
 30
0.0
 10
226.6753585820301
 20
-37.25647723632412
 30
0.0
 10
226.5757746546842
 20
-37.25076166971954
 30
0.0
 10
226.4349700262965
 20
-37.2062594311347
 30
0.0
 10
226.3069113457275
 20
-37.13933479103171
 30
0.0
 10
226.2036373779925
 20
-37.04460223849943
 30
0.0
 10
226.1322348098973
 20
-36.92428554746314
 30
0.0
 10
226.1217854384558
 20
-36.83449364709811
 30
0.0
 10
226.1165903357055
 20
-36.78985190465841
 30
0.0
 11
226.7249913678135
 21
-37.25932588369599
 31
0.0
 11
226.5770712192658
 21
-37.24469056959425
 31
0.0
 11
226.4339376044971
 21
-37.20119713291082
 31
0.0
 11
226.310139532618
 21
-37.13410097846386
 31
0.0
 11
226.2076653249901
 21
-37.03874083122841
 31
0.0
 11
226.1411961367188
 21
-36.92113481342468
 31
0.0
 11
226.1165903357055
 21
-36.78985190465841
 31
0.0
  0
SPLINE
  5
179
330
59
100
AcDbEntity
  8
0
  6
Continuous
 62
     7
100
AcDbSpline
210
0.0
220
0.0
230
1.0
 70
     8
 71
     3
 72
    13
 73
     9
 74
     7
 42
0.0000000001
 43
0.0000000001
 44
0.00000001
 40
0.0
 40
0.0
 40
0.0
 40
0.0
 40
0.0328394650074211
 40
0.0655975995951891
 40
0.1022664447831249
 40
0.1389211607506241
 40
0.1782532813533586
 40
0.2177267691612668
 40
0.2177267691612668
 40
0.2177267691612668
 40
0.2177267691612668
 10
227.1029274437375
 20
-36.77997063088029
 30
0.0
 10
227.0919445521012
 20
-36.77911047606777
 30
0.0
 10
227.070005969125
 20
-36.77739229670739
 30
0.0
 10
227.0382929000737
 20
-36.76363402879451
 30
0.0
 10
227.0087733980873
 20
-36.7438614895075
 30
0.0
 10
226.9826639258748
 20
-36.71646510364307
 30
0.0
 10
226.9641930280009
 20
-36.6815895051557
 30
0.0
 10
226.9618792698875
 20
-36.65520070215109
 30
0.0
 10
226.9607203155375
 20
-36.64198263157622
 30
0.0
 11
227.1029274437375
 21
-36.77997063088029
 31
0.0
 11
227.0703789118352
 21
-36.77560903335458
 31
0.0
 11
227.0399976152428
 21
-36.76335863748185
 31
0.0
 11
227.0096223266031
 21
-36.74281731212369
 31
0.0
 11
226.9845537646646
 21
-36.71607529639951
 31
0.0
 11
226.9667797341444
 21
-36.6809882681672
 31
0.0
 11
226.9607203155375
 21
-36.64198263157622
 31
0.0
  0
SPLINE
  5
17A
330
59
100
AcDbEntity
  8
0
  6
Continuous
 62
     7
100
AcDbSpline
210
0.0
220
0.0
230
1.0
 70
     8
 71
     3
 72
    14
 73
    10
 74
     8
 42
0.0000000001
 43
0.0000000001
 44
0.00000001
 40
0.0
 40
0.0
 40
0.0
 40
0.0
 40
0.037551074854839
 40
0.0754042334901176
 40
0.1094159352404565
 40
0.1434580761255022
 40
0.1709669697094013
 40
0.2205583987493943
 40
0.3151356117044906
 40
0.3151356117044906
 40
0.3151356117044906
 40
0.3151356117044906
 10
228.3812705949645
 20
-36.77997063088029
 30
0.0
 10
228.3938214346679
 20
-36.77922867444733
 30
0.0
 10
228.4190240806945
 20
-36.7777387928307
 30
0.0
 10
228.4535926850724
 20
-36.76376342586598
 30
0.0
 10
228.4810886518469
 20
-36.74113785869459
 30
0.0
 10
228.500667172094
 20
-36.71540378697242
 30
0.0
 10
228.5130113415325
 20
-36.67999270192377
 30
0.0
 10
228.5161714750417
 20
-36.62246080421551
 30
0.0
 10
228.5169095333595
 20
-36.57449434869794
 30
0.0
 10
228.5173937128436
 20
-36.54302749421831
 30
0.0
 11
228.3812705949645
 21
-36.77997063088029
 31
0.0
 11
228.4185809680538
 21
-36.77572571831426
 31
0.0
 11
228.4536835438942
 21
-36.76155988660431
 31
0.0
 11
228.4801501360757
 21
-36.74019834746849
 31
0.0
 11
228.50023944896
 21
-36.71271586461349
 31
0.0
 11
228.509649272908
 21
-36.68686640737592
 31
0.0
 11
228.5151167309889
 21
-36.63757729360459
 31
0.0
 11
228.5173937128436
 21
-36.54302749421831
 31
0.0
  0
SPLINE
  5
17B
330
59
100
AcDbEntity
  8
0
  6
Continuous
 62
     7
100
AcDbSpline
210
0.0
220
0.0
230
1.0
 70
     8
 71
     3
 72
    13
 73
     9
 74
     7
 42
0.0000000001
 43
0.0000000001
 44
0.00000001
 40
0.0
 40
0.0
 40
0.0
 40
0.0
 40
0.0303249383642131
 40
0.0604417851174605
 40
0.0959479298118496
 40
0.1315593707301246
 40
0.1736623627999872
 40
0.2160932553482189
 40
0.2160932553482189
 40
0.2160932553482189
 40
0.2160932553482189
 10
228.5165604679515
 20
-35.65806727162371
 30
0.0
 10
228.5158872888203
 20
-35.6479280828937
 30
0.0
 10
228.514545549955
 20
-35.62771928117663
 30
0.0
 10
228.5028441890026
 20
-35.59752856744252
 30
0.0
 10
228.4848182367771
 20
-35.56877403450768
 30
0.0
 10
228.4577133444058
 20
-35.54194059315473
 30
0.0
 10
228.4207528470832
 20
-35.52376714938772
 30
0.0
 10
228.3924575621254
 20
-35.52169920435142
 30
0.0
 10
228.3782550420225
 20
-35.52066122113288
 30
0.0
 11
228.5165604679515
 21
-35.65806727162371
 31
0.0
 11
228.5130231687806
 21
-35.62794934670567
 31
0.0
 11
228.5027259575261
 21
-35.59964754643186
 31
0.0
 11
228.4837496688098
 21
-35.56963776839844
 31
0.0
 11
228.4581539688693
 21
-35.54487822743268
 31
0.0
 11
228.4202856544242
 21
-35.52647570852042
 31
0.0
 11
228.3782550420225
 21
-35.52066122113288
 31
0.0
  0
SPLINE
  5
17C
330
59
100
AcDbEntity
  8
0
  6
Continuous
 62
     7
100
AcDbSpline
210
0.0
220
0.0
230
1.0
 70
     8
 71
     3
 72
    13
 73
     9
 74
     7
 42
0.0000000001
 43
0.0000000001
 44
0.00000001
 40
0.0
 40
0.0
 40
0.0
 40
0.0
 40
0.0381152522468561
 40
0.0763355512011972
 40
0.1127548768764265
 40
0.1486421571416507
 40
0.1827729054947384
 40
0.2174479487766227
 40
0.2174479487766227
 40
0.2174479487766227
 40
0.2174479487766227
 10
229.9575318602825
 20
-35.08091953601229
 30
0.0
 10
229.9447799418419
 20
-35.08188770918476
 30
0.0
 10
229.9192409603147
 20
-35.08382672384216
 30
0.0
 10
229.8843656266569
 20
-35.09958776134761
 30
0.0
 10
229.8548157279276
 20
-35.12194639190825
 30
0.0
 10
229.8325120066213
 20
-35.15030480704315
 30
0.0
 10
229.8212133813598
 20
-35.18403511253526
 30
0.0
 10
229.8203055619143
 20
-35.20701998601718
 30
0.0
 10
229.8198480614945
 20
-35.21860333480041
 30
0.0
 11
229.9575318602825
 21
-35.08091953601229
 31
0.0
 11
229.9197568356722
 21
-35.08600087142081
 31
0.0
 11
229.8846295453043
 21
-35.10106290061889
 31
0.0
 11
229.8557338732483
 21
-35.12323061180147
 31
0.0
 11
229.8340132246547
 21
-35.15179825625298
 31
0.0
 11
229.8228758944341
 21
-35.18406074001817
 31
0.0
 11
229.8198480614945
 21
-35.21860333480041
 31
0.0
  0
SPLINE
  5
17D
330
59
100
AcDbEntity
  8
0
  6
Continuous
 62
     7
100
AcDbSpline
210
0.0
220
0.0
230
1.0
 70
     8
 71
     3
 72
    13
 73
     9
 74
     7
 42
0.0000000001
 43
0.0000000001
 44
0.00000001
 40
0.0
 40
0.0
 40
0.0
 40
0.0
 40
0.0381152522468504
 40
0.0763355512011719
 40
0.1127548768763926
 40
0.1486421571416281
 40
0.1827729054947695
 40
0.2174479487766396
 40
0.2174479487766396
 40
0.2174479487766396
 40
0.2174479487766396
 10
229.9575318602825
 20
-37.25468351929879
 30
0.0
 10
229.9447799418418
 20
-37.25371534612634
 30
0.0
 10
229.9192409603146
 20
-37.25177633146896
 30
0.0
 10
229.884365626657
 20
-37.23601529396355
 30
0.0
 10
229.8548157279275
 20
-37.21365666340294
 30
0.0
 10
229.8325120066212
 20
-37.185298248268
 30
0.0
 10
229.8212133813598
 20
-37.15156794277587
 30
0.0
 10
229.8203055619143
 20
-37.12858306929393
 30
0.0
 10
229.8198480614945
 20
-37.11699972051071
 30
0.0
 11
229.9575318602825
 21
-37.25468351929879
 31
0.0
 11
229.9197568356722
 21
-37.2496021838903
 31
0.0
 11
229.8846295453043
 21
-37.23454015469228
 31
0.0
 11
229.8557338732483
 21
-37.21237244350971
 31
0.0
 11
229.8340132246547
 21
-37.18380479905819
 31
0.0
 11
229.8228758944341
 21
-37.15154231529294
 31
0.0
 11
229.8198480614945
 21
-37.11699972051071
 31
0.0
  0
SPLINE
  5
17E
330
59
100
AcDbEntity
  8
0
  6
Continuous
 62
     7
100
AcDbSpline
210
0.0
220
0.0
230
1.0
 70
     8
 71
     3
 72
    13
 73
     9
 74
     7
 42
0.0000000001
 43
0.0000000001
 44
0.00000001
 40
0.0
 40
0.0
 40
0.0
 40
0.0
 40
0.0381152522468279
 40
0.0763355512011951
 40
0.1127548768764245
 40
0.1486421571417863
 40
0.1827729054950224
 40
0.217447948776934
 40
0.217447948776934
 40
0.217447948776934
 40
0.217447948776934
 10
237.3700387394155
 20
-35.08091953601229
 30
0.0
 10
237.3572868209749
 20
-35.08188770918476
 30
0.0
 10
237.3317478394477
 20
-35.08382672384217
 30
0.0
 10
237.29687250579
 20
-35.09958776134761
 30
0.0
 10
237.2673226070605
 20
-35.1219463919083
 30
0.0
 10
237.2450188857541
 20
-35.15030480704316
 30
0.0
 10
237.233720260492
 20
-35.18403511253518
 30
0.0
 10
237.2328124410464
 20
-35.20701998601717
 30
0.0
 10
237.2323549406265
 20
-35.21860333480041
 30
0.0
 11
237.3700387394155
 21
-35.08091953601229
 31
0.0
 11
237.3322637148052
 21
-35.08600087142081
 31
0.0
 11
237.2971364244372
 21
-35.10106290061889
 31
0.0
 11
237.2682407523813
 21
-35.12323061180147
 31
0.0
 11
237.2465201037875
 21
-35.15179825625298
 31
0.0
 11
237.2353827735664
 21
-35.18406074001817
 31
0.0
 11
237.2323549406265
 21
-35.21860333480041
 31
0.0
  0
SPLINE
  5
17F
330
59
100
AcDbEntity
  8
0
  6
Continuous
 62
     7
100
AcDbSpline
210
0.0
220
0.0
230
1.0
 70
     8
 71
     3
 72
    13
 73
     9
 74
     7
 42
0.0000000001
 43
0.0000000001
 44
0.00000001
 40
0.0
 40
0.0
 40
0.0
 40
0.0
 40
0.0381152522468222
 40
0.0763355512011698
 40
0.1127548768763905
 40
0.1486421571417637
 40
0.1827729054950535
 40
0.2174479487769509
 40
0.2174479487769509
 40
0.2174479487769509
 40
0.2174479487769509
 10
237.3700387394155
 20
-37.25468351929879
 30
0.0
 10
237.3572868209749
 20
-37.25371534612634
 30
0.0
 10
237.3317478394477
 20
-37.25177633146896
 30
0.0
 10
237.29687250579
 20
-37.23601529396357
 30
0.0
 10
237.2673226070605
 20
-37.21365666340288
 30
0.0
 10
237.2450188857541
 20
-37.18529824826798
 30
0.0
 10
237.2337202604921
 20
-37.15156794277596
 30
0.0
 10
237.2328124410465
 20
-37.12858306929395
 30
0.0
 10
237.2323549406265
 20
-37.11699972051071
 30
0.0
 11
237.3700387394155
 21
-37.25468351929879
 31
0.0
 11
237.3322637148052
 21
-37.2496021838903
 31
0.0
 11
237.2971364244372
 21
-37.23454015469228
 31
0.0
 11
237.2682407523813
 21
-37.21237244350971
 31
0.0
 11
237.2465201037875
 21
-37.18380479905819
 31
0.0
 11
237.2353827735664
 21
-37.15154231529294
 31
0.0
 11
237.2323549406265
 21
-37.11699972051071
 31
0.0
  0
SPLINE
  5
180
330
59
100
AcDbEntity
  8
0
  6
Continuous
 62
     7
100
AcDbSpline
210
0.0
220
0.0
230
1.0
 70
     8
 71
     3
 72
    13
 73
     9
 74
     7
 42
0.0000000001
 43
0.0000000001
 44
0.00000001
 40
0.0
 40
0.0
 40
0.0
 40
0.0
 40
0.0353323702701605
 40
0.0704203827951117
 40
0.1027084056751115
 40
0.1352293371689149
 40
0.1740111215768275
 40
0.212528743877462
 40
0.212528743877462
 40
0.212528743877462
 40
0.212528743877462
 10
236.7525910484815
 20
-35.22011111127119
 30
0.0
 10
236.7517048543348
 20
-35.20828920586813
 30
0.0
 10
236.7499385949367
 20
-35.18472715504941
 30
0.0
 10
236.7354824622619
 20
-35.152960671643
 30
0.0
 10
236.7147947358792
 20
-35.12658926271824
 30
0.0
 10
236.6885371782223
 20
-35.10408032727612
 30
0.0
 10
236.6562437489129
 20
-35.08511214737273
 30
0.0
 10
236.6303583553588
 20
-35.08231388554979
 30
0.0
 10
236.6174598888055
 20
-35.08091953601229
 30
0.0
 11
236.7525910484815
 21
-35.22011111127119
 31
0.0
 11
236.7478819699414
 21
-35.18509395878542
 31
0.0
 11
236.7338761036892
 21
-35.15292247555142
 31
0.0
 11
236.7140968467705
 21
-35.1274019462222
 31
0.0
 11
236.6895221877272
 21
-35.10610177913058
 31
0.0
 11
236.6553719279136
 21
-35.08772280863374
 31
0.0
 11
236.6174598888055
 21
-35.08091953601229
 31
0.0
  0
MTEXT
  5
182
330
59
100
AcDbEntity
  8
0
 62
     7
100
AcDbMText
 10
-78.18535031372268
 20
-73.831250263088
 30
0.0
 40
1.3
 41
0.0
 71
     7
 72
     1
  3
Diese Zeichnung entspricht dem Entwicklungsstand des Zeichnungsdatums bzw. der letzten \U+00c4nderungseintragung. Aus der Ben\U+00fctzung der Zeichnung k\U+00f6nnen\Pkeine Anspr\U+00fcche, gleich welcher Art, einschlie\U+00dflich Schadenersatzanspr
  3
\U+00fcche, abgeleitet und gegen GEZE geltend gemacht werden. Die Zeichnung bleibt unser\PEigentum und ist Dritten nur f\U+00fcr die Vertragsdauer zur Benutzung \U+00fcberlassen. S\U+00e4mtliche sich aus der Zeichnung ergebenden Anspr\U+00fcche steh
  3
en ausschlie\U+00dflich\PGEZE zu. Ohne vorherige Zustimmung von GEZE darf diese Zeichnung weder vervielf\U+00e4ltig noch Dritten zug\U+00e4nglich gemacht werden.\PThis drawing shows the actual state of product development at the date of the drawing 
  3
or the revision date. No claims or damages in any form can bei made\Pagainst GEZE as a result of the interpretation of this drawing. This drawing remains the property of GEZE and ist made available to third paries only for\Pthe duration of contractu
  1
ral obligations. All rights connected with this drawing remain in possession of GEZE. This drawing may not bei copied of handed\Pover to third parties without the express consent of GEZE.
  7
CONVERTER_11
 73
     1
 44
0.84033613445378
  0
MTEXT
  5
184
330
59
100
AcDbEntity
  8
1
 62
     7
100
AcDbMText
 10
132.5639621482855
 20
-72.33032853432141
 30
0.0
 40
2.0
 41
0.0
 71
     5
 72
     1
  1
EMPB = Erstmusterpr\U+00fcfbericht /First sample test report
  7
CONVERTER_12
 73
     1
 44
1.02040816326531
  0
MTEXT
  5
185
330
59
100
AcDbEntity
  8
0
 62
     4
100
AcDbMText
 10
286.0801123559326
 20
-67.1021266456979
 30
0.0
 40
3.5
 41
0.0
 71
     5
 72
     1
  1
D
  7
CONVERTER_12
 73
     1
 44
1.02040816326531
  0
MTEXT
  5
187
330
59
100
AcDbEntity
  8
0
 62
     3
100
AcDbMText
 10
223.1865773911115
 20
-60.15212664569789
 30
0.0
 40
1.8
 41
0.0
 71
     4
 72
     1
  1
gepr. / checked
  7
CONVERTER_13
 73
     1
 44
0.90036014405762
  0
MTEXT
  5
188
330
59
100
AcDbEntity
  8
0
 62
     3
100
AcDbMText
 10
223.1865773911115
 20
-55.85212664569789
 30
0.0
 40
1.8
 41
0.0
 71
     4
 72
     1
  1
erstellt / drawn
  7
CONVERTER_13
 73
     1
 44
0.90036014405762
  0
TEXT
  5
189
330
59
100
AcDbEntity
  8
0
 62
     4
100
AcDbText
 10
244.0170107694545
 20
-35.85377617294338
 30
0.0
 40
2.2
  1
GEZE GmbH
 41
0.9
  7
CONVERTER_12
100
AcDbText
  0
MTEXT
  5
18A
330
59
100
AcDbEntity
  8
0
 62
     3
100
AcDbMText
 10
244.0170107694545
 20
-43.58525340171769
 30
0.0
 40
1.8
 41
0.0
 71
     7
 72
     1
  1
P.O. Box 13 63\P71226 Leonberg\PGermany
  7
CONVERTER_13
 73
     1
 44
0.78031212484994
  0
MTEXT
  5
18B
330
59
100
AcDbEntity
  8
0
 62
     3
100
AcDbMText
 10
300.4573969422535
 20
-54.40212664569791
 30
0.0
 40
1.8
 41
0.0
 71
     7
 72
     1
  1
Material-Nr.\PID-no.
  7
CONVERTER_13
 73
     1
 44
0.84033613445378
  0
TEXT
  5
18C
330
59
100
AcDbEntity
  8
0
 62
     3
100
AcDbText
 10
300.4573969422535
 20
-64.90212664569789
 30
0.0
 40
1.8
  1
Zeichnungs-Nr. / document-no.
 41
0.72
  7
CONVERTER_13
100
AcDbText
  0
TEXT
  5
18D
330
59
100
AcDbEntity
  8
0
 62
     3
100
AcDbText
 10
273.6573969422535
 20
-64.56879339619792
 30
0.0
 40
1.8
  1
Sprache / language
 41
0.72
  7
CONVERTER_13
100
AcDbText
  0
MTEXT
  5
18E
330
59
100
AcDbEntity
  8
0
 62
     3
100
AcDbMText
 10
273.1722973614727
 20
-59.94033839676419
 30
0.0
 40
1.8
 41
0.0
 71
     7
 72
     1
  1
Ma\U+00dfstab\Pscale
  7
CONVERTER_13
 73
     1
 44
0.84033613445378
  0
TEXT
  5
18F
330
59
100
AcDbEntity
  8
0
 62
     3
100
AcDbText
 10
264.2573539422536
 20
-34.7021206456979
 30
0.0
 40
1.8
  1
Benennung / designation
 41
0.72
  7
CONVERTER_13
100
AcDbText
  0
MTEXT
  5
190
330
59
100
AcDbEntity
  8
0
 62
     3
100
AcDbMText
 10
223.1865773911115
 20
-72.0521266456979
 30
0.0
 40
1.8
 41
0.0
 71
     4
 72
     1
  1
Ersetzt durch:\Psubst. with:
  7
CONVERTER_13
 73
     1
 44
0.84033613445378
  0
MTEXT
  5
191
330
59
100
AcDbEntity
  8
0
 62
     3
100
AcDbMText
 10
223.1865773911115
 20
-65.5521266456979
 30
0.0
 40
1.8
 41
0.0
 71
     4
 72
     1
  1
Ersatz f\U+00fcr:\Psubst. for:
  7
CONVERTER_13
 73
     1
 44
0.84033613445378
  0
MTEXT
  5
192
330
59
100
AcDbEntity
  8
0
 62
     3
100
AcDbMText
 10
273.2707357603005
 20
-54.14781455480639
 30
0.0
 40
1.8
 41
0.0
 71
     7
 72
     1
  1
Blatt / von\Psheet / of
  7
CONVERTER_13
 73
     1
 44
0.84033613445378
  0
MTEXT
  5
194
330
59
100
AcDbEntity
  8
0
 62
     3
100
AcDbMText
 10
248.9573969422535
 20
-52.60457062918169
 30
0.0
 40
1.8
 41
0.0
 71
     8
 72
     1
  1
Datum / date
  7
CONVERTER_14
 73
     1
 44
0.90036014405762
  0
MTEXT
  5
195
330
59
100
AcDbEntity
  8
0
 62
     3
100
AcDbMText
 10
264.9573969422535
 20
-52.60457062918169
 30
0.0
 40
1.8
 41
0.0
 71
     8
 72
     1
  1
Name / name
  7
CONVERTER_14
 73
     1
 44
0.90036014405762
  0
MTEXT
  5
197
330
59
100
AcDbEntity
  8
0
 62
     7
100
AcDbMText
 10
184.6573969422535
 20
-72.94169735364478
 30
0.0
 40
1.3
 41
0.0
 71
     8
 72
     1
  1
Dok.version
  7
CONVERTER_15
 73
     1
 44
0.7202881152461
  0
MTEXT
  5
198
330
59
100
AcDbEntity
  8
0
 62
     7
100
AcDbMText
 10
184.6573969422535
 20
-74.74169735364478
 30
0.0
 40
1.3
 41
0.0
 71
     8
 72
     1
  1
doc.version
  7
CONVERTER_15
 73
     1
 44
0.7202881152461
  0
MTEXT
  5
199
330
59
100
AcDbEntity
  8
0
 62
     7
100
AcDbMText
 10
194.9573969422535
 20
-74.74169735364478
 30
0.0
 40
1.3
 41
0.0
 71
     8
 72
     1
  1
date
  7
CONVERTER_13
 73
     1
 44
0.7202881152461
  0
MTEXT
  5
19A
330
59
100
AcDbEntity
  8
0
 62
     7
100
AcDbMText
 10
194.9573969422535
 20
-72.94169735364478
 30
0.0
 40
1.3
 41
0.0
 71
     8
 72
     1
  1
Datum
  7
CONVERTER_13
 73
     1
 44
0.7202881152461
  0
MTEXT
  5
19B
330
59
100
AcDbEntity
  8
0
 62
     7
100
AcDbMText
 10
203.9573969422535
 20
-74.74169735364478
 30
0.0
 40
1.3
 41
0.0
 71
     8
 72
     1
  1
name
  7
CONVERTER_13
 73
     1
 44
0.7202881152461
  0
MTEXT
  5
19C
330
59
100
AcDbEntity
  8
0
 62
     7
100
AcDbMText
 10
203.9573969422535
 20
-72.94169735364478
 30
0.0
 40
1.3
 41
0.0
 71
     8
 72
     1
  1
Name
  7
CONVERTER_13
 73
     1
 44
0.7202881152461
  0
MTEXT
  5
19D
330
59
100
AcDbEntity
  8
0
 62
     7
100
AcDbMText
 10
215.4573969422535
 20
-74.74169735364478
 30
0.0
 40
1.3
 41
0.0
 71
     8
 72
     1
  1
Doc. change no.
  7
CONVERTER_13
 73
     1
 44
0.7202881152461
  0
MTEXT
  5
19E
330
59
100
AcDbEntity
  8
0
 62
     7
100
AcDbMText
 10
215.4573969422535
 20
-72.94169735364478
 30
0.0
 40
1.3
 41
0.0
 71
     8
 72
     1
  1
Mitteilungs-Nr.
  7
CONVERTER_13
 73
     1
 44
0.7202881152461
  0
MTEXT
  5
19F
330
59
100
AcDbEntity
  8
0
 62
     4
100
AcDbMText
 10
293.6529543586735
 20
-52.8021266456979
 30
0.0
 40
5.0
 41
0.0
 71
     5
 72
     1
  1
/
  7
CONVERTER_12
 73
     1
 44
1.02040816326531
  0
MTEXT
  5
1A0
330
59
100
AcDbEntity
  8
0
 62
     7
100
AcDbMText
 10
184.6573969422535
 20
-68.8521296456979
 30
0.0
 40
2.0
 41
0.0
 71
     5
 72
     1
  1
00
  7
CONVERTER_12
 73
     1
 44
1.02040816326531
  0
MTEXT
  5
1A1
330
59
100
AcDbEntity
  8
0
 62
     7
100
AcDbMText
 10
184.6573969422535
 20
-64.5521416456979
 30
0.0
 40
2.0
 41
0.0
 71
     5
 72
     1
  1
 
  7
CONVERTER_12
 73
     1
 44
1.02040816326531
  0
MTEXT
  5
1A2
330
59
100
AcDbEntity
  8
0
 62
     7
100
AcDbMText
 10
184.6573969422535
 20
-60.2521536456979
 30
0.0
 40
2.0
 41
0.0
 71
     5
 72
     1
  1
 
  7
CONVERTER_12
 73
     1
 44
1.02040816326531
  0
MTEXT
  5
1A3
330
59
100
AcDbEntity
  8
0
 62
     7
100
AcDbMText
 10
184.6573969422535
 20
-55.9521656456979
 30
0.0
 40
2.0
 41
0.0
 71
     5
 72
     1
  1
 
  7
CONVERTER_12
 73
     1
 44
1.02040816326531
  0
MTEXT
  5
1A4
330
59
100
AcDbEntity
  8
0
 62
     7
100
AcDbMText
 10
184.6573969422535
 20
-51.65217764569789
 30
0.0
 40
2.0
 41
0.0
 71
     5
 72
     1
  1
 
  7
CONVERTER_12
 73
     1
 44
1.02040816326531
  0
MTEXT
  5
1A5
330
59
100
AcDbEntity
  8
0
 62
     7
100
AcDbMText
 10
184.6573969422535
 20
-47.35218964569791
 30
0.0
 40
2.0
 41
0.0
 71
     5
 72
     1
  1
 
  7
CONVERTER_12
 73
     1
 44
1.02040816326531
  0
MTEXT
  5
1A6
330
59
100
AcDbEntity
  8
0
 62
     7
100
AcDbMText
 10
184.6573969422535
 20
-43.05220164569789
 30
0.0
 40
2.0
 41
0.0
 71
     5
 72
     1
  1
 
  7
CONVERTER_12
 73
     1
 44
1.02040816326531
  0
MTEXT
  5
1A7
330
59
100
AcDbEntity
  8
0
 62
     7
100
AcDbMText
 10
194.4573969422535
 20
-38.75221364569791
 30
0.0
 40
2.0
 41
0.0
 71
     5
 72
     1
  1
 
  7
CONVERTER_15
 73
     1
 44
1.02040816326531
  0
MTEXT
  5
1A8
330
59
100
AcDbEntity
  8
0
 62
     7
100
AcDbMText
 10
184.6573969422535
 20
-34.45222564569789
 30
0.0
 40
2.0
 41
0.0
 71
     5
 72
     1
  1
 
  7
CONVERTER_12
 73
     1
 44
1.02040816326531
  0
MTEXT
  5
1A9
330
59
100
AcDbEntity
  8
0
 62
     7
100
AcDbMText
 10
215.4573969422535
 20
-34.45222564569789
 30
0.0
 40
2.0
 41
0.0
 71
     5
 72
     1
  1
 
  7
CONVERTER_12
 73
     1
 44
1.02040816326531
  0
MTEXT
  5
1AA
330
59
100
AcDbEntity
  8
0
 62
     7
100
AcDbMText
 10
204.2573969422535
 20
-38.75221364569791
 30
0.0
 40
2.0
 41
0.0
 71
     5
 72
     1
  1
 
  7
CONVERTER_13
 73
     1
 44
1.02040816326531
  0
MTEXT
  5
1AB
330
59
100
AcDbEntity
  8
0
 62
     7
100
AcDbMText
 10
204.2573969422535
 20
-43.05220164569789
 30
0.0
 40
2.0
 41
0.0
 71
     5
 72
     1
  1
 
  7
CONVERTER_13
 73
     1
 44
1.02040816326531
  0
MTEXT
  5
1AC
330
59
100
AcDbEntity
  8
0
 62
     7
100
AcDbMText
 10
204.2573969422535
 20
-47.35218964569791
 30
0.0
 40
2.0
 41
0.0
 71
     5
 72
     1
  1
 
  7
CONVERTER_13
 73
     1
 44
1.02040816326531
  0
MTEXT
  5
1AD
330
59
100
AcDbEntity
  8
0
 62
     7
100
AcDbMText
 10
194.4573969422535
 20
-51.65217764569789
 30
0.0
 40
2.0
 41
0.0
 71
     5
 72
     1
  1
 
  7
CONVERTER_15
 73
     1
 44
1.02040816326531
  0
MTEXT
  5
1AE
330
59
100
AcDbEntity
  8
0
 62
     7
100
AcDbMText
 10
204.2573969422535
 20
-55.9521656456979
 30
0.0
 40
2.0
 41
0.0
 71
     5
 72
     1
  1
 
  7
CONVERTER_13
 73
     1
 44
1.02040816326531
  0
MTEXT
  5
1AF
330
59
100
AcDbEntity
  8
0
 62
     7
100
AcDbMText
 10
215.4573969422535
 20
-60.2521536456979
 30
0.0
 40
2.0
 41
0.0
 71
     5
 72
     1
  1
 
  7
CONVERTER_12
 73
     1
 44
1.02040816326531
  0
MTEXT
  5
1B0
330
59
100
AcDbEntity
  8
0
 62
     7
100
AcDbMText
 10
215.4573969422535
 20
-64.5521416456979
 30
0.0
 40
2.0
 41
0.0
 71
     5
 72
     1
  1
 
  7
CONVERTER_12
 73
     1
 44
1.02040816326531
  0
MTEXT
  5
1B1
330
59
100
AcDbEntity
  8
0
 62
     7
100
AcDbMText
 10
194.4573969422535
 20
-68.8521296456979
 30
0.0
 40
2.0
 41
0.0
 71
     5
 72
     1
  1
22.06.2009
  7
CONVERTER_15
 73
     1
 44
1.02040816326531
  0
MTEXT
  5
1B2
330
59
100
AcDbEntity
  8
0
 62
     7
100
AcDbMText
 10
204.2573969422535
 20
-68.8521296456979
 30
0.0
 40
2.0
 41
0.0
 71
     5
 72
     1
  1
tb10
  7
CONVERTER_13
 73
     1
 44
1.02040816326531
  0
MTEXT
  5
1B3
330
59
100
AcDbEntity
  8
0
 62
     7
100
AcDbMText
 10
215.4573969422535
 20
-55.9521656456979
 30
0.0
 40
2.0
 41
0.0
 71
     5
 72
     1
  1
 
  7
CONVERTER_12
 73
     1
 44
1.02040816326531
  0
MTEXT
  5
1B4
330
59
100
AcDbEntity
  8
0
 62
     7
100
AcDbMText
 10
194.4573969422535
 20
-60.2521536456979
 30
0.0
 40
2.0
 41
0.0
 71
     5
 72
     1
  1
 
  7
CONVERTER_15
 73
     1
 44
1.02040816326531
  0
MTEXT
  5
1B5
330
59
100
AcDbEntity
  8
0
 62
     7
100
AcDbMText
 10
215.4573969422535
 20
-68.8521296456979
 30
0.0
 40
2.0
 41
0.0
 71
     5
 72
     1
  1
48578
  7
CONVERTER_12
 73
     1
 44
1.02040816326531
  0
MTEXT
  5
1B6
330
59
100
AcDbEntity
  8
0
 62
     7
100
AcDbMText
 10
194.4573969422535
 20
-64.5521416456979
 30
0.0
 40
2.0
 41
0.0
 71
     5
 72
     1
  1
 
  7
CONVERTER_15
 73
     1
 44
1.02040816326531
  0
MTEXT
  5
1B7
330
59
100
AcDbEntity
  8
0
 62
     7
100
AcDbMText
 10
194.4573969422535
 20
-55.9521656456979
 30
0.0
 40
2.0
 41
0.0
 71
     5
 72
     1
  1
 
  7
CONVERTER_15
 73
     1
 44
1.02040816326531
  0
MTEXT
  5
1B8
330
59
100
AcDbEntity
  8
0
 62
     7
100
AcDbMText
 10
194.4573969422535
 20
-47.35218964569791
 30
0.0
 40
2.0
 41
0.0
 71
     5
 72
     1
  1
 
  7
CONVERTER_15
 73
     1
 44
1.02040816326531
  0
MTEXT
  5
1B9
330
59
100
AcDbEntity
  8
0
 62
     7
100
AcDbMText
 10
194.4573969422535
 20
-43.05220164569789
 30
0.0
 40
2.0
 41
0.0
 71
     5
 72
     1
  1
 
  7
CONVERTER_15
 73
     1
 44
1.02040816326531
  0
MTEXT
  5
1BA
330
59
100
AcDbEntity
  8
0
 62
     7
100
AcDbMText
 10
194.4573969422535
 20
-34.45222564569789
 30
0.0
 40
2.0
 41
0.0
 71
     5
 72
     1
  1
 
  7
CONVERTER_15
 73
     1
 44
1.02040816326531
  0
MTEXT
  5
1BB
330
59
100
AcDbEntity
  8
0
 62
     7
100
AcDbMText
 10
204.2573969422535
 20
-64.5521416456979
 30
0.0
 40
2.0
 41
0.0
 71
     5
 72
     1
  1
 
  7
CONVERTER_13
 73
     1
 44
1.02040816326531
  0
MTEXT
  5
1BC
330
59
100
AcDbEntity
  8
0
 62
     7
100
AcDbMText
 10
204.2573969422535
 20
-60.2521536456979
 30
0.0
 40
2.0
 41
0.0
 71
     5
 72
     1
  1
 
  7
CONVERTER_13
 73
     1
 44
1.02040816326531
  0
MTEXT
  5
1BD
330
59
100
AcDbEntity
  8
0
 62
     7
100
AcDbMText
 10
204.2573969422535
 20
-51.65217764569789
 30
0.0
 40
2.0
 41
0.0
 71
     5
 72
     1
  1
 
  7
CONVERTER_13
 73
     1
 44
1.02040816326531
  0
MTEXT
  5
1BE
330
59
100
AcDbEntity
  8
0
 62
     7
100
AcDbMText
 10
204.2573969422535
 20
-34.45222564569789
 30
0.0
 40
2.0
 41
0.0
 71
     5
 72
     1
  1
 
  7
CONVERTER_13
 73
     1
 44
1.02040816326531
  0
MTEXT
  5
1BF
330
59
100
AcDbEntity
  8
0
 62
     7
100
AcDbMText
 10
215.4573969422535
 20
-51.65217764569789
 30
0.0
 40
2.0
 41
0.0
 71
     5
 72
     1
  1
 
  7
CONVERTER_12
 73
     1
 44
1.02040816326531
  0
MTEXT
  5
1C0
330
59
100
AcDbEntity
  8
0
 62
     7
100
AcDbMText
 10
215.4573969422535
 20
-47.35218964569791
 30
0.0
 40
2.0
 41
0.0
 71
     5
 72
     1
  1
 
  7
CONVERTER_12
 73
     1
 44
1.02040816326531
  0
MTEXT
  5
1C1
330
59
100
AcDbEntity
  8
0
 62
     7
100
AcDbMText
 10
215.4573969422535
 20
-43.05220164569789
 30
0.0
 40
2.0
 41
0.0
 71
     5
 72
     1
  1
 
  7
CONVERTER_12
 73
     1
 44
1.02040816326531
  0
MTEXT
  5
1C2
330
59
100
AcDbEntity
  8
0
 62
     7
100
AcDbMText
 10
215.4573969422535
 20
-38.75221364569791
 30
0.0
 40
2.0
 41
0.0
 71
     5
 72
     1
  1
 
  7
CONVERTER_12
 73
     1
 44
1.02040816326531
  0
MTEXT
  5
1C3
330
59
100
AcDbEntity
  8
0
 62
     7
100
AcDbMText
 10
184.6573969422535
 20
-38.75221364569791
 30
0.0
 40
2.0
 41
0.0
 71
     5
 72
     1
  1
 
  7
CONVERTER_12
 73
     1
 44
1.02040816326531
  0
MTEXT
  5
1C4
330
59
100
AcDbEntity
  8
0
 62
     3
100
AcDbMText
 10
247.4926270104355
 20
-55.48851142785949
 30
0.0
 40
2.5
 41
0.0
 71
     5
 72
     1
  1
19.06.2009
  7
CONVERTER_15
 73
     1
 44
1.02040816326531
  0
MTEXT
  5
1C5
330
59
100
AcDbEntity
  8
0
 62
     3
100
AcDbMText
 10
264.5846752604355
 20
-55.48851142785949
 30
0.0
 40
2.5
 41
0.0
 71
     5
 72
     1
  1
tbg3
  7
CONVERTER_13
 73
     1
 44
1.02040816326531
  0
MTEXT
  5
1C6
330
59
100
AcDbEntity
  8
0
 62
     1
100
AcDbMText
 10
286.6361004264705
 20
-59.09087633829481
 30
0.0
 40
5.0
 41
0.0
 71
     5
 72
     1
  1
1:1
  7
CONVERTER_12
 73
     1
 44
1.02040816326531
  0
MTEXT
  5
1C7
330
59
100
AcDbEntity
  8
0
 62
     3
100
AcDbMText
 10
247.4926270104355
 20
-59.8139575149948
 30
0.0
 40
2.5
 41
0.0
 71
     5
 72
     1
  1
23.06.2009
  7
CONVERTER_15
 73
     1
 44
1.02040816326531
  0
MTEXT
  5
1C8
330
59
100
AcDbEntity
  8
0
 62
     3
100
AcDbMText
 10
253.2004051286685
 20
-72.8919909772214
 30
0.0
 40
2.5
 41
0.0
 71
     5
 72
     1
  1
 
  7
CONVERTER_12
 73
     1
 44
1.02040816326531
  0
MTEXT
  5
1C9
330
59
100
AcDbEntity
  8
0
 62
     3
100
AcDbMText
 10
253.2004051286685
 20
-65.3919909772214
 30
0.0
 40
2.5
 41
0.0
 71
     5
 72
     1
  1
 
  7
CONVERTER_12
 73
     1
 44
1.02040816326531
  0
MTEXT
  5
1CA
330
59
100
AcDbEntity
  8
0
 62
     3
100
AcDbMText
 10
264.5846752604355
 20
-59.8139575149948
 30
0.0
 40
2.5
 41
0.0
 71
     5
 72
     1
  1
tbg3
  7
CONVERTER_13
 73
     1
 44
1.02040816326531
  0
MTEXT
  5
1CB
330
59
100
AcDbEntity
  8
0
 62
     4
100
AcDbMText
 10
310.4573969422535
 20
-45.7511557067494
 30
0.0
 40
4.0
 41
0.0
 71
     5
 72
     1
  1
Floor Pivot
  7
CONVERTER_13
 73
     1
 44
1.02040816326531
  0
MTEXT
  5
1CC
330
59
100
AcDbEntity
  8
0
 62
     1
100
AcDbMText
 10
310.4573969422535
 20
-38.8628891018557
 30
0.0
 40
5.0
 41
0.0
 71
     5
 72
     1
  1
Bodenlager DL-FL
  7
CONVERTER_13
 73
     1
 44
1.02040816326531
  0
MTEXT
  5
1CD
330
59
100
AcDbEntity
  8
0
 62
     1
100
AcDbMText
 10
329.4573969422535
 20
-56.7919754636397
 30
0.0
 40
5.0
 41
0.0
 71
     5
 72
     1
  1
 
  7
CONVERTER_12
 73
     1
 44
1.02040816326531
  0
MTEXT
  5
1CE
330
59
100
AcDbEntity
  8
0
 62
     1
100
AcDbMText
 10
329.4573969422535
 20
-69.91660755997
 30
0.0
 40
5.0
 41
0.0
 71
     5
 72
     1
  1
91905-1-0150
  7
CONVERTER_13
 73
     1
 44
1.02040816326531
  0
MTEXT
  5
1CF
330
59
100
AcDbEntity
  8
0
 62
     4
100
AcDbMText
 10
296.8732003865775
 20
-52.8021266456979
 30
0.0
 40
3.5
 41
0.0
 71
     5
 72
     1
  1
1
  7
CONVERTER_12
 73
     1
 44
1.02040816326531
  0
MTEXT
  5
1D0
330
59
100
AcDbEntity
  8
0
 62
     4
100
AcDbMText
 10
290.0801123559326
 20
-52.8021266456979
 30
0.0
 40
3.5
 41
0.0
 71
     5
 72
     1
  1
1
  7
CONVERTER_12
 73
     1
 44
1.02040816326531
  0
MTEXT
  5
1D1
330
59
100
AcDbEntity
  8
0
 62
     7
100
AcDbMText
 10
178.0573969422535
 20
-73.19750031857919
 30
0.0
 40
1.3
 41
0.0
 71
     8
 72
     1
  1
EMPB
  7
CONVERTER_13
 73
     1
 44
0.7202881152461
  0
TEXT
  5
1D3
330
59
100
AcDbEntity
  8
0
 62
     4
100
AcDbText
 10
223.4849926621115
 20
-48.16126159379479
 30
0.0
 40
2.5
  1
vertraulich / confidential
 41
0.765
  7
CONVERTER_16
100
AcDbText
  0
MTEXT
  5
1D4
330
59
100
AcDbEntity
  8
0
 62
     4
100
AcDbMText
 10
177.6573969422535
 20
-68.8521296456979
 30
0.0
 40
2.0
 41
0.0
 71
     5
 72
     1
  1
 
  7
CONVERTER_12
 73
     1
 44
1.02040816326531
  0
MTEXT
  5
1D5
330
59
100
AcDbEntity
  8
0
 62
     4
100
AcDbMText
 10
177.6573969422535
 20
-64.5521416456979
 30
0.0
 40
2.0
 41
0.0
 71
     5
 72
     1
  1
 
  7
CONVERTER_12
 73
     1
 44
1.02040816326531
  0
MTEXT
  5
1D6
330
59
100
AcDbEntity
  8
0
 62
     4
100
AcDbMText
 10
177.6573969422535
 20
-60.2521536456979
 30
0.0
 40
2.0
 41
0.0
 71
     5
 72
     1
  1
 
  7
CONVERTER_12
 73
     1
 44
1.02040816326531
  0
MTEXT
  5
1D7
330
59
100
AcDbEntity
  8
0
 62
     4
100
AcDbMText
 10
177.6573969422535
 20
-55.9521656456979
 30
0.0
 40
2.0
 41
0.0
 71
     5
 72
     1
  1
 
  7
CONVERTER_12
 73
     1
 44
1.02040816326531
  0
MTEXT
  5
1D8
330
59
100
AcDbEntity
  8
0
 62
     4
100
AcDbMText
 10
177.6573969422535
 20
-51.65217764569789
 30
0.0
 40
2.0
 41
0.0
 71
     5
 72
     1
  1
 
  7
CONVERTER_12
 73
     1
 44
1.02040816326531
  0
MTEXT
  5
1D9
330
59
100
AcDbEntity
  8
0
 62
     4
100
AcDbMText
 10
177.6573969422535
 20
-47.35218964569791
 30
0.0
 40
2.0
 41
0.0
 71
     5
 72
     1
  1
 
  7
CONVERTER_12
 73
     1
 44
1.02040816326531
  0
MTEXT
  5
1DA
330
59
100
AcDbEntity
  8
0
 62
     4
100
AcDbMText
 10
177.6573969422535
 20
-43.05220164569789
 30
0.0
 40
2.0
 41
0.0
 71
     5
 72
     1
  1
 
  7
CONVERTER_12
 73
     1
 44
1.02040816326531
  0
MTEXT
  5
1DB
330
59
100
AcDbEntity
  8
0
 62
     4
100
AcDbMText
 10
177.6573969422535
 20
-38.75221364569791
 30
0.0
 40
2.0
 41
0.0
 71
     5
 72
     1
  1
 
  7
CONVERTER_12
 73
     1
 44
1.02040816326531
  0
MTEXT
  5
1DC
330
59
100
AcDbEntity
  8
0
 62
     4
100
AcDbMText
 10
177.6573969422535
 20
-34.45222564569789
 30
0.0
 40
2.0
 41
0.0
 71
     5
 72
     1
  1
 
  7
CONVERTER_12
 73
     1
 44
1.02040816326531
  0
ENDBLK
  5
5B
330
59
100
AcDbEntity
  8
0
100
AcDbBlockEnd
  0
BLOCK
  5
5E
330
5C
100
AcDbEntity
  8
0
100
AcDbBlockBegin
  2
rahmen
 70
     0
 71
     0
 10
149.4573969422535
 20
67.69787335430209
 30
0.0
  3
rahmen
  1

  0
INSERT
  5
5D
330
5C
100
AcDbEntity
  8
1
100
AcDbBlockReference
  2
a3kl
 10
149.4573969422535
 20
67.69787335430209
 30
0.0
  0
ENDBLK
  5
5F
330
5C
100
AcDbEntity
  8
0
100
AcDbBlockEnd
  0
BLOCK
  5
61
330
60
100
AcDbEntity
  8
0
100
AcDbBlockBegin
  2
TOP__5
 70
     0
 71
     0
 10
2361.083046577414
 20
-66.10422388421917
 30
0.0
  3
TOP__5
  1

  0
LINE
  5
1DD
330
60
100
AcDbEntity
  8
1
  6
Continuous
 62
     4
100
AcDbLine
 10
2573.127136861621
 20
-66.10422388421915
 30
0.0
 11
2307.127136861621
 21
-66.10422388421915
 31
0.0
  0
LINE
  5
1DE
330
60
100
AcDbEntity
  8
1
  6
Continuous
 62
     4
100
AcDbLine
 10
2149.038956293208
 20
-66.10422388421915
 30
0.0
 11
2149.038956293208
 21
-10.10422388421915
 31
0.0
  0
LINE
  5
1DF
330
60
100
AcDbEntity
  8
1
  6
Continuous
 62
     4
100
AcDbLine
 10
2149.038956293208
 20
-10.10422388421915
 30
0.0
 11
2573.127136861621
 21
-10.10422388421915
 31
0.0
  0
LINE
  5
1E0
330
60
100
AcDbEntity
  8
1
  6
Continuous
 62
     4
100
AcDbLine
 10
2573.127136861621
 20
-10.10422388421915
 30
0.0
 11
2573.127136861621
 21
-66.10422388421915
 31
0.0
  0
LINE
  5
1E1
330
60
100
AcDbEntity
  8
1
  6
Continuous
 62
     4
100
AcDbLine
 10
2573.127136861621
 20
-122.1042238842192
 30
0.0
 11
2307.127136861621
 21
-122.1042238842192
 31
0.0
  0
LINE
  5
1E2
330
60
100
AcDbEntity
  8
1
  6
Continuous
 62
     4
100
AcDbLine
 10
2149.038956293208
 20
-122.1042238842192
 30
0.0
 11
2149.038956293208
 21
-66.10422388421915
 31
0.0
  0
LINE
  5
1E3
330
60
100
AcDbEntity
  8
1
  6
Continuous
 62
     4
100
AcDbLine
 10
2573.127136861621
 20
-66.10422388421915
 30
0.0
 11
2573.127136861621
 21
-122.1042238842192
 31
0.0
  0
LINE
  5
1E4
330
60
100
AcDbEntity
  8
1
  6
Continuous
 62
     4
100
AcDbLine
 10
2573.127136861621
 20
-66.10422388421915
 30
0.0
 11
2149.038956293208
 21
-66.10422388421915
 31
0.0
  0
LINE
  5
1E5
330
60
100
AcDbEntity
  8
1
  6
Continuous
 62
     4
100
AcDbLine
 10
2573.127136861621
 20
-122.1042238842192
 30
0.0
 11
2149.038956293208
 21
-122.1042238842192
 31
0.0
  0
LINE
  5
1E6
330
60
100
AcDbEntity
  8
1
  6
Continuous
 62
     4
100
AcDbLine
 10
2320.038956293208
 20
-10.10422388421915
 30
0.0
 11
2320.038956293208
 21
-122.1042238842192
 31
0.0
  0
MTEXT
  5
1E7
330
60
100
AcDbEntity
  8
1
 62
     3
100
AcDbMText
 10
2355.10680723992
 20
-105.2874954956342
 30
0.0
 40
28.0
 41
0.0
 71
     7
 72
     1
  1
  ID\P135393
  7
CONVERTER_12
 73
     1
 44
1.20048019207683
  0
MTEXT
  5
1E8
330
60
100
AcDbEntity
  8
1
 62
     3
100
AcDbMText
 10
2187.589875397248
 20
-103.8723066939392
 30
0.0
 40
28.0
 41
0.0
 71
     7
 72
     1
  1
Typ\PDL-FL
  7
CONVERTER_12
 73
     1
 44
1.20048019207683
  0
ENDBLK
  5
62
330
60
100
AcDbEntity
  8
0
100
AcDbBlockEnd
  0
BLOCK
  5
65
330
63
100
AcDbEntity
  8
0
100
AcDbBlockBegin
  2
TOP__6
 70
     0
 71
     0
 10
590.2707616443536
 20
-16.52605597105479
 30
0.0
  3
TOP__6
  1

  0
INSERT
  5
64
330
63
100
AcDbEntity
  8
0
100
AcDbBlockReference
  2
TOP__5
 10
590.2707616443535
 20
-16.52605597105479
 30
0.0
 41
0.25
 42
0.25
 43
0.25
  0
ENDBLK
  5
66
330
63
100
AcDbEntity
  8
0
100
AcDbBlockEnd
  0
BLOCK
  5
69
330
67
100
AcDbEntity
  8
0
100
AcDbBlockBegin
  2
1__7
 70
     0
 71
     0
 10
590.2707616443536
 20
-16.52605597105479
 30
0.0
  3
1__7
  1

  0
INSERT
  5
68
330
67
100
AcDbEntity
  8
0
100
AcDbBlockReference
  2
TOP__6
 10
590.2707616443536
 20
-16.52605597105479
 30
0.0
  0
ENDBLK
  5
6A
330
67
100
AcDbEntity
  8
0
100
AcDbBlockEnd
  0
BLOCK
  5
6D
330
6B
100
AcDbEntity
  8
0
100
AcDbBlockBegin
  2
Top__8
 70
     0
 71
     0
 10
590.2707616443536
 20
-16.52605597105479
 30
0.0
  3
Top__8
  1

  0
INSERT
  5
6C
330
6B
100
AcDbEntity
  8
1
100
AcDbBlockReference
  2
1__7
 10
590.2707616443536
 20
-16.52605597105479
 30
0.0
  0
ENDBLK
  5
6E
330
6B
100
AcDbEntity
  8
0
100
AcDbBlockEnd
  0
BLOCK
  5
71
330
6F
100
AcDbEntity
  8
0
100
AcDbBlockBegin
  2
1__9
 70
     0
 71
     0
 10
590.2707616443536
 20
-16.52605597105479
 30
0.0
  3
1__9
  1

  0
INSERT
  5
70
330
6F
100
AcDbEntity
  8
0
100
AcDbBlockReference
  2
Top__8
 10
590.2707616443536
 20
-16.52605597105479
 30
0.0
  0
ENDBLK
  5
72
330
6F
100
AcDbEntity
  8
0
100
AcDbBlockEnd
  0
BLOCK
  5
75
330
73
100
AcDbEntity
  8
0
100
AcDbBlockBegin
  2
1__10
 70
     0
 71
     0
 10
590.2707616443536
 20
-16.52605597105479
 30
0.0
  3
1__10
  1

  0
INSERT
  5
74
330
73
100
AcDbEntity
  8
1
100
AcDbBlockReference
  2
1__9
 10
590.2707616443536
 20
-16.52605597105479
 30
0.0
  0
ENDBLK
  5
76
330
73
100
AcDbEntity
  8
0
100
AcDbBlockEnd
  0
BLOCK
  5
79
330
77
100
AcDbEntity
  8
0
100
AcDbBlockBegin
  2
Einfügen1
 70
     0
 71
     0
 10
590.2707616443536
 20
-16.52605597105479
 30
0.0
  3
Einfügen1
  1

  0
INSERT
  5
78
330
77
100
AcDbEntity
  8
1
100
AcDbBlockReference
  2
1__10
 10
590.2707616443536
 20
-16.52605597105479
 30
0.0
  0
ENDBLK
  5
7A
330
77
100
AcDbEntity
  8
0
100
AcDbBlockEnd
  0
BLOCK
  5
7D
330
7B
100
AcDbEntity
  8
0
100
AcDbBlockBegin
  2
1__11
 70
     0
 71
     0
 10
295.1353808221768
 20
-8.2630279855274
 30
0.0
  3
1__11
  1

  0
INSERT
  5
7C
330
7B
100
AcDbEntity
  8
0
100
AcDbBlockReference
  2
Einfügen1
 10
295.1353808221768
 20
-8.2630279855274
 30
0.0
 41
0.5
 42
0.5
 43
0.5
  0
ENDBLK
  5
7E
330
7B
100
AcDbEntity
  8
0
100
AcDbBlockEnd
  0
BLOCK
  5
80
330
7F
100
AcDbEntity
  8
0
100
AcDbBlockBegin
  2
_OFLA
 70
     0
 71
     0
 10
120.1833777776803
 20
54.11170959079945
 30
0.0
  3
_OFLA
  1

  0
LINE
  5
1E9
330
7F
100
AcDbEntity
  8
1
  6
Continuous
 62
     3
100
AcDbLine
 10
204.4753659351808
 20
99.1234191815988
 30
0.0
 11
207.362117281129
 21
94.1234191815988
 31
0.0
  0
LINE
  5
1EA
330
7F
100
AcDbEntity
  8
1
  6
Continuous
 62
     3
100
AcDbLine
 10
207.362117281129
 20
94.1234191815988
 30
0.0
 11
213.1356199730253
 21
104.1234191815988
 31
0.0
  0
LINE
  5
1EB
330
7F
100
AcDbEntity
  8
1
  6
Continuous
 62
     3
100
AcDbLine
 10
213.1356199730253
 20
104.1234191815988
 30
0.0
 11
223.128053000846
 21
104.1234191815988
 31
0.0
  0
TEXT
  5
1EC
330
7F
100
AcDbEntity
  8
1
 62
     4
100
AcDbText
 10
230.1167555553606
 20
105.2086445107301
 30
0.0
 40
2.5
  1
/ FFL
 41
0.9
  7
CONVERTER_12
100
AcDbText
  0
TEXT
  5
1ED
330
7F
100
AcDbEntity
  8
1
 62
     4
100
AcDbText
 10
213.1356199730253
 20
104.7234191815989
 30
0.0
 40
3.5
  1
OKFF
 41
0.9
  7
CONVERTER_12
100
AcDbText
  0
ENDBLK
  5
81
330
7F
100
AcDbEntity
  8
0
100
AcDbBlockEnd
  0
BLOCK
  5
84
330
82
100
AcDbEntity
  8
0
100
AcDbBlockBegin
  2
1__12
 70
     0
 71
     0
 10
222.4210607452707
 20
101.1734191815989
 30
0.0
  3
1__12
  1

  0
INSERT
  5
83
330
82
100
AcDbEntity
  8
1
100
AcDbBlockReference
  2
_OFLA
 10
120.1833777776803
 20
54.11170959079945
 30
0.0
  0
ENDBLK
  5
85
330
82
100
AcDbEntity
  8
0
100
AcDbBlockEnd
  0
BLOCK
  5
88
330
86
100
AcDbEntity
  8
0
100
AcDbBlockBegin
  2
1__13
 70
     0
 71
     0
 10
222.4210607452707
 20
101.1734191815989
 30
0.0
  3
1__13
  1

  0
INSERT
  5
87
330
86
100
AcDbEntity
  8
1
100
AcDbBlockReference
  2
1__12
 10
222.4210607452707
 20
101.1734191815989
 30
0.0
  0
ENDBLK
  5
89
330
86
100
AcDbEntity
  8
0
100
AcDbBlockEnd
  0
BLOCK
  5
8C
330
8A
100
AcDbEntity
  8
0
100
AcDbBlockBegin
  2
SD_drawing__14
 70
     0
 71
     0
 10
222.4210607452707
 20
101.1734191815989
 30
0.0
  3
SD_drawing__14
  1

  0
INSERT
  5
8B
330
8A
100
AcDbEntity
  8
1
100
AcDbBlockReference
  2
1__13
 10
222.4210607452707
 20
101.1734191815989
 30
0.0
  0
ENDBLK
  5
8D
330
8A
100
AcDbEntity
  8
0
100
AcDbBlockEnd
  0
BLOCK
  5
93
330
8E
100
AcDbEntity
  8
0
100
AcDbBlockBegin
  2
TOP__15
 70
     0
 71
     0
 10
149.4573969422535
 20
67.69787335430209
 30
0.0
  3
TOP__15
  1

  0
INSERT
  5
8F
330
8E
100
AcDbEntity
  8
0
100
AcDbBlockReference
  2
SD_drawing__4
 10
98.19361444599052
 20
126.3734191815999
 30
0.0
  0
INSERT
  5
90
330
8E
100
AcDbEntity
  8
0
100
AcDbBlockReference
  2
rahmen
 10
149.4573969422535
 20
67.69787335430209
 30
0.0
  0
INSERT
  5
91
330
8E
100
AcDbEntity
  8
1
100
AcDbBlockReference
  2
1__11
 10
295.1353808221768
 20
-8.2630279855274
 30
0.0
  0
INSERT
  5
92
330
8E
100
AcDbEntity
  8
0
100
AcDbBlockReference
  2
SD_drawing__14
 10
222.4210607452707
 20
101.1734191815989
 30
0.0
  0
POINT
  5
1EE
330
8E
100
AcDbEntity
  8
1
 62
     3
 60
     1
100
AcDbPoint
 10
-3.67440427997002
 20
94.1234191815988
 30
0.0
  0
POINT
  5
1EF
330
8E
100
AcDbEntity
  8
1
 62
     3
 60
     1
100
AcDbPoint
 10
199.494347107534
 20
72.1234191815988
 30
0.0
  0
POINT
  5
1F0
330
8E
100
AcDbEntity
  8
1
 62
     3
 60
     1
100
AcDbPoint
 10
-3.67440427997002
 20
72.1234191815988
 30
0.0
  0
POINT
  5
1F1
330
8E
100
AcDbEntity
  8
1
 62
     3
 60
     1
100
AcDbPoint
 10
199.494347107534
 20
94.1234191815988
 30
0.0
  0
POINT
  5
1F2
330
8E
100
AcDbEntity
  8
1
 62
     3
 60
     1
100
AcDbPoint
 10
43.20322382424001
 20
72.1234191815988
 30
0.0
  0
POINT
  5
1F3
330
8E
100
AcDbEntity
  8
1
 62
     3
 60
     1
100
AcDbPoint
 10
144.203223824241
 20
72.1234191815988
 30
0.0
  0
POINT
  5
1F4
330
8E
100
AcDbEntity
  8
1
 62
     3
 60
     1
100
AcDbPoint
 10
201.322012680703
 20
101.1234191815988
 30
0.0
  0
POINT
  5
1F5
330
8E
100
AcDbEntity
  8
DEFPOINTS
 62
     1
100
AcDbPoint
 10
115.703223824241
 20
90.1234191815988
 30
0.0
  0
POINT
  5
1F6
330
8E
100
AcDbEntity
  8
DEFPOINTS
 62
     1
100
AcDbPoint
 10
115.703223824241
 20
90.1234191815988
 30
0.0
  0
POINT
  5
1F7
330
8E
100
AcDbEntity
  8
DEFPOINTS
 62
     1
100
AcDbPoint
 10
79.20322382424001
 20
95.1465297906668
 30
0.0
  0
POINT
  5
1F8
330
8E
100
AcDbEntity
  8
DEFPOINTS
 62
     1
100
AcDbPoint
 10
52.20322382424001
 20
90.1234191815988
 30
0.0
  0
POINT
  5
1F9
330
8E
100
AcDbEntity
  8
1
 62
     3
 60
     1
100
AcDbPoint
 10
144.203223824241
 20
94.1234191815988
 30
0.0
  0
POINT
  5
1FA
330
8E
100
AcDbEntity
  8
1
 62
     3
 60
     1
100
AcDbPoint
 10
212.203223824241
 20
94.1234191815988
 30
0.0
  0
POINT
  5
1FB
330
8E
100
AcDbEntity
  8
1
 62
     3
 60
     1
100
AcDbPoint
 10
43.20322382424001
 20
94.1234191815988
 30
0.0
  0
POINT
  5
1FC
330
8E
100
AcDbEntity
  8
1
 62
     3
 60
     1
100
AcDbPoint
 10
-0.79677617575999
 20
94.1234191815988
 30
0.0
  0
POINT
  5
1FD
330
8E
100
AcDbEntity
  8
1
 62
     3
 60
     1
100
AcDbPoint
 10
59.70322382424001
 20
90.1234191815988
 30
0.0
  0
POINT
  5
1FE
330
8E
100
AcDbEntity
  8
1
 62
     3
 60
     1
100
AcDbPoint
 10
59.70322382424001
 20
77.1234191815988
 30
0.0
  0
POINT
  5
1FF
330
8E
100
AcDbEntity
  8
1
 62
     3
 60
     1
100
AcDbPoint
 10
98.70322382424001
 20
77.1234191815988
 30
0.0
  0
POINT
  5
200
330
8E
100
AcDbEntity
  8
1
 62
     3
 60
     1
100
AcDbPoint
 10
98.70322382424001
 20
90.1234191815988
 30
0.0
  0
POINT
  5
201
330
8E
100
AcDbEntity
  8
1
 62
     3
 60
     1
100
AcDbPoint
 10
176.052564155769
 20
101.1234191815988
 30
0.0
  0
POINT
  5
202
330
8E
100
AcDbEntity
  8
1
 62
     3
 60
     1
100
AcDbPoint
 10
16.20322382424001
 20
150.123419181601
 30
0.0
  0
LINE
  5
203
102
{ACAD_REACTORS
330
2F0
330
2F0
102
}
330
8E
100
AcDbEntity
  8
1
  6
Continuous
 62
     1
100
AcDbLine
 10
-0.79677617575999
 20
94.1234191815988
 30
0.0
 11
-3.67440427997002
 21
94.1234191815988
 31
0.0
  0
LINE
  5
204
102
{ACAD_REACTORS
330
2F0
330
2F0
102
}
330
8E
100
AcDbEntity
  8
1
  6
Continuous
 62
   250
100
AcDbLine
 10
-3.67440427997002
 20
72.1234191815988
 30
0.0
 11
-3.67440427997002
 21
94.1234191815988
 31
0.0
  0
LINE
  5
205
102
{ACAD_REACTORS
330
2F0
330
2F0
102
}
330
8E
100
AcDbEntity
  8
1
  6
Continuous
 62
   250
100
AcDbLine
 10
43.20322382424001
 20
72.1234191815988
 30
0.0
 11
-3.67440427997002
 21
72.1234191815988
 31
0.0
  0
LINE
  5
206
102
{ACAD_REACTORS
330
2F0
330
2F0
102
}
330
8E
100
AcDbEntity
  8
1
  6
Continuous
 62
   250
100
AcDbLine
 10
199.494347107534
 20
72.1234191815988
 30
0.0
 11
144.203223824241
 21
72.1234191815988
 31
0.0
  0
LINE
  5
207
330
8E
100
AcDbEntity
  8
1
  6
Continuous
 62
     1
100
AcDbLine
 10
199.494347107534
 20
94.1234191815988
 30
0.0
 11
212.203223824241
 21
94.1234191815988
 31
0.0
  0
LINE
  5
208
102
{ACAD_REACTORS
330
2F0
330
2F0
102
}
330
8E
100
AcDbEntity
  8
1
  6
Continuous
 62
   250
100
AcDbLine
 10
199.494347107534
 20
94.1234191815988
 30
0.0
 11
199.494347107534
 21
72.1234191815988
 31
0.0
  0
LINE
  5
209
102
{ACAD_REACTORS
330
2F0
330
2F0
102
}
330
8E
100
AcDbEntity
  8
1
  6
Continuous
 62
   250
100
AcDbLine
 10
144.203223824241
 20
72.1234191815988
 30
0.0
 11
43.20322382424001
 21
72.1234191815988
 31
0.0
  0
LINE
  5
20A
330
8E
100
AcDbEntity
  8
Dick
100
AcDbLine
 10
68.08155715757336
 20
100.6234191815991
 30
0.0
 11
67.95322382424001
 21
97.1234191815988
 31
0.0
  0
LINE
  5
20B
330
8E
100
AcDbEntity
  8
Dick
100
AcDbLine
 10
68.1016668753873
 20
100.6234191815991
 30
0.0
 11
67.994838928836
 21
97.1234191815988
 31
0.0
  0
LINE
  5
20C
330
8E
100
AcDbEntity
  8
Dick
100
AcDbLine
 10
68.98216195436294
 20
100.6234191815992
 30
0.0
 11
68.85261943359899
 21
97.0904413425888
 31
0.0
  0
LINE
  5
20D
330
8E
100
AcDbEntity
  8
Dick
100
AcDbLine
 10
90.3047807730937
 20
100.6234191816007
 30
0.0
 11
90.41160871964499
 21
97.1234191815988
 31
0.0
  0
LINE
  5
20E
330
8E
100
AcDbEntity
  8
Dick
100
AcDbLine
 10
90.32489049090684
 20
100.6234191816007
 30
0.0
 11
90.45322382424001
 21
97.1234191815988
 31
0.0
  0
LINE
  5
20F
330
8E
100
AcDbEntity
  8
Dick
100
AcDbLine
 10
89.424285694118
 20
100.6234191816007
 30
0.0
 11
89.553828214882
 21
97.0904413425888
 31
0.0
  0
LINE
  5
210
330
8E
100
AcDbEntity
  8
Dick
100
AcDbLine
 10
143.20322382424
 20
47.1311021565018
 30
0.0
 11
43.20322382424001
 21
47.1311021565018
 31
0.0
  0
LINE
  5
211
102
{ACAD_REACTORS
330
2F0
330
2F0
102
}
330
8E
100
AcDbEntity
  8
Dick
100
AcDbLine
 10
144.203223824241
 20
90.1234191815988
 30
0.0
 11
144.203223824241
 21
94.1234191815988
 31
0.0
  0
LINE
  5
212
330
8E
100
AcDbEntity
  8
Dick
100
AcDbLine
 10
118.953223824241
 20
90.1234191815988
 30
0.0
 11
118.953223824241
 21
91.1234191815988
 31
0.0
  0
LINE
  5
213
330
8E
100
AcDbEntity
  8
Mittellinie-K
100
AcDbLine
 10
115.703223824241
 20
96.3297279815258
 30
0.0
 11
115.703223824241
 21
87.9327762547428
 31
0.0
  0
LINE
  5
214
330
8E
100
AcDbEntity
  8
Dick
100
AcDbLine
 10
118.953223824241
 20
91.1234191815988
 30
0.0
 11
115.70322382424
 21
91.1234191815988
 31
0.0
  0
LINE
  5
215
330
8E
100
AcDbEntity
  8
Dick
100
AcDbLine
 10
121.953223824241
 20
94.1234191815988
 30
0.0
 11
118.953223824241
 21
91.1234191815988
 31
0.0
  0
LINE
  5
216
330
8E
100
AcDbEntity
  8
Dick
100
AcDbLine
 10
144.203223824241
 20
94.1234191815988
 30
0.0
 11
115.703223824241
 21
94.1234191815988
 31
0.0
  0
LINE
  5
217
330
8E
100
AcDbEntity
  8
Dick
100
AcDbLine
 10
143.20322382424
 20
47.1311021565018
 30
0.0
 11
143.203223824241
 21
3.1311021565018
 31
0.0
  0
LINE
  5
218
330
8E
100
AcDbEntity
  8
Mittellinie-K
100
AcDbLine
 10
115.70322382424
 20
43.5153908027912
 30
0.0
 11
115.703223824241
 21
6.4561037155702
 31
0.0
  0
LINE
  5
219
330
8E
100
AcDbEntity
  8
Dick
100
AcDbLine
 10
112.453223824241
 20
91.1234191815988
 30
0.0
 11
112.453223824241
 21
90.1234191815988
 31
0.0
  0
LINE
  5
21A
330
8E
100
AcDbEntity
  8
Dick
100
AcDbLine
 10
109.453223824241
 20
94.1234191815988
 30
0.0
 11
112.453223824241
 21
91.1234191815988
 31
0.0
  0
LINE
  5
21B
330
8E
100
AcDbEntity
  8
Dick
100
AcDbLine
 10
97.70322382424001
 20
89.1234191815988
 30
0.0
 11
97.70322382424001
 21
90.1234191815988
 31
0.0
  0
LINE
  5
21C
330
8E
100
AcDbEntity
  8
Dick
100
AcDbLine
 10
98.70322382424001
 20
95.1234191815988
 30
0.0
 11
98.70322382424001
 21
94.1234191815988
 31
0.0
  0
LINE
  5
21D
330
8E
100
AcDbEntity
  8
Verdeckt
100
AcDbLine
 10
98.20322382424001
 20
95.1234191815988
 30
0.0
 11
98.20322382424001
 21
94.1234191815988
 31
0.0
  0
LINE
  5
21E
330
8E
100
AcDbEntity
  8
Dick
100
AcDbLine
 10
91.903223824241
 20
96.6234191815988
 30
0.0
 11
91.903223824241
 21
96.1234191815988
 31
0.0
  0
LINE
  5
21F
330
8E
100
AcDbEntity
  8
Dick
100
AcDbLine
 10
91.403223824241
 20
97.1234191815988
 30
0.0
 11
91.903223824241
 21
96.6234191815988
 31
0.0
  0
LINE
  5
220
330
8E
100
AcDbEntity
  8
Dick
100
AcDbLine
 10
90.16006358482201
 20
105.3647829848258
 30
0.0
 11
90.3047807730937
 21
100.6234191816007
 31
0.0
  0
LINE
  5
221
330
8E
100
AcDbEntity
  8
Dick
100
AcDbLine
 10
89.003828214881
 20
112.0904413425888
 30
0.0
 11
89.424285694118
 21
100.6234191816007
 31
0.0
  0
LINE
  5
222
330
8E
100
AcDbEntity
  8
Dick
100
AcDbLine
 10
89.903223824241
 20
112.1234191815988
 30
0.0
 11
90.32489049090684
 21
100.6234191816007
 31
0.0
  0
LINE
  5
223
330
8E
100
AcDbEntity
  8
Dick
100
AcDbLine
 10
66.50322382424
 20
96.6234191815988
 30
0.0
 11
66.50322382424
 21
96.1234191815988
 31
0.0
  0
LINE
  5
224
330
8E
100
AcDbEntity
  8
Dick
100
AcDbLine
 10
67.00322382424
 20
97.1234191815988
 30
0.0
 11
66.50322382424
 21
96.6234191815988
 31
0.0
  0
LINE
  5
225
330
8E
100
AcDbEntity
  8
Dick
100
AcDbLine
 10
68.24638406365901
 20
105.3647829848228
 30
0.0
 11
68.1016668753873
 21
100.6234191815991
 31
0.0
  0
LINE
  5
226
330
8E
100
AcDbEntity
  8
Dick
100
AcDbLine
 10
69.4026194336
 20
112.0904413425888
 30
0.0
 11
68.98216195436294
 21
100.6234191815992
 31
0.0
  0
LINE
  5
227
330
8E
100
AcDbEntity
  8
Dick
100
AcDbLine
 10
68.50322382424
 20
112.1234191815988
 30
0.0
 11
68.08155715757336
 21
100.6234191815991
 31
0.0
  0
LINE
  5
228
330
8E
100
AcDbEntity
  8
Dick
100
AcDbLine
 10
60.70322382424001
 20
90.1234191815988
 30
0.0
 11
60.70322382424001
 21
89.1234191815988
 31
0.0
  0
LINE
  5
229
330
8E
100
AcDbEntity
  8
Verdeckt
100
AcDbLine
 10
60.20322382424001
 20
95.1234191815988
 30
0.0
 11
60.20322382424001
 21
94.1234191815988
 31
0.0
  0
LINE
  5
22A
330
8E
100
AcDbEntity
  8
Dick
100
AcDbLine
 10
59.70322382424001
 20
95.1234191815988
 30
0.0
 11
59.70322382424001
 21
94.1234191815988
 31
0.0
  0
LINE
  5
22B
330
8E
100
AcDbEntity
  8
Dick
100
AcDbLine
 10
55.45322382424001
 20
90.1234191815988
 30
0.0
 11
55.45322382424001
 21
91.1234191815988
 31
0.0
  0
LINE
  5
22C
330
8E
100
AcDbEntity
  8
Mittellinie-K
100
AcDbLine
 10
52.20322382424001
 20
96.32972798152682
 30
0.0
 11
52.20322382424001
 21
87.9327762547428
 31
0.0
  0
LINE
  5
22D
330
8E
100
AcDbEntity
  8
Mittellinie-K
100
AcDbLine
 10
52.20322382424001
 20
96.32972798152682
 30
0.0
 11
52.20322382424001
 21
87.9327762547428
 31
0.0
  0
LINE
  5
22E
330
8E
100
AcDbEntity
  8
Dick
100
AcDbLine
 10
48.95322382424001
 20
91.1234191815988
 30
0.0
 11
48.95322382424001
 21
90.1234191815988
 31
0.0
  0
LINE
  5
22F
330
8E
100
AcDbEntity
  8
Dick
100
AcDbLine
 10
52.20322382424001
 20
91.1234191815988
 30
0.0
 11
48.95322382424001
 21
91.1234191815988
 31
0.0
  0
LINE
  5
230
330
8E
100
AcDbEntity
  8
Dick
100
AcDbLine
 10
55.45322382424001
 20
91.1234191815988
 30
0.0
 11
52.20322382424001
 21
91.1234191815988
 31
0.0
  0
LINE
  5
231
330
8E
100
AcDbEntity
  8
Dick
100
AcDbLine
 10
58.45322382424001
 20
94.1234191815988
 30
0.0
 11
55.45322382424001
 21
91.1234191815988
 31
0.0
  0
LINE
  5
232
330
8E
100
AcDbEntity
  8
Dick
100
AcDbLine
 10
60.70322382424001
 20
96.1234191815988
 30
0.0
 11
97.70322382424001
 21
96.1234191815988
 31
0.0
  0
LINE
  5
233
330
8E
100
AcDbEntity
  8
Verdeckt
100
AcDbLine
 10
60.70322382424001
 20
95.6234191815988
 30
0.0
 11
97.70322382424001
 21
95.6234191815988
 31
0.0
  0
LINE
  5
234
330
8E
100
AcDbEntity
  8
Dick
100
AcDbLine
 10
60.70322382424001
 20
89.1234191815988
 30
0.0
 11
97.70322382424001
 21
89.1234191815988
 31
0.0
  0
LINE
  5
235
330
8E
100
AcDbEntity
  8
Dick
100
AcDbLine
 10
68.50322382424
 20
112.1234191815988
 30
0.0
 11
89.903223824241
 21
112.1234191815988
 31
0.0
  0
LINE
  5
236
330
8E
100
AcDbEntity
  8
Dick
100
AcDbLine
 10
91.903223824241
 20
96.6234191815988
 30
0.0
 11
66.50322382424
 21
96.6234191815988
 31
0.0
  0
LINE
  5
237
330
8E
100
AcDbEntity
  8
Dick
100
AcDbLine
 10
67.00322382424
 20
97.1234191815988
 30
0.0
 11
91.403223824241
 21
97.1234191815988
 31
0.0
  0
LINE
  5
238
102
{ACAD_REACTORS
330
2F0
330
2F0
102
}
330
8E
100
AcDbEntity
  8
Dick
100
AcDbLine
 10
43.20322382424001
 20
94.1234191815988
 30
0.0
 11
43.20322382424001
 21
90.1234191815988
 31
0.0
  0
LINE
  5
239
102
{ACAD_REACTORS
330
2F0
330
2F0
102
}
330
8E
100
AcDbEntity
  8
Dick
100
AcDbLine
 10
43.20322382424001
 20
90.1234191815988
 30
0.0
 11
52.20322382424001
 21
90.1234191815988
 31
0.0
  0
LINE
  5
23A
330
8E
100
AcDbEntity
  8
Dick
100
AcDbLine
 10
52.20322382424001
 20
94.1234191815988
 30
0.0
 11
43.20322382424001
 21
94.1234191815988
 31
0.0
  0
LINE
  5
23B
330
8E
100
AcDbEntity
  8
Dick
100
AcDbLine
 10
45.95322382424001
 20
94.1234191815988
 30
0.0
 11
48.95322382424001
 21
91.1234191815988
 31
0.0
  0
LINE
  5
23C
330
8E
100
AcDbEntity
  8
Dick
100
AcDbLine
 10
88.44984482869401
 20
29.7811021565018
 30
0.0
 11
89.0470035861
 21
30.7811021565018
 31
0.0
  0
LINE
  5
23D
330
8E
100
AcDbEntity
  8
Dick
100
AcDbLine
 10
88.44984482869401
 20
20.4811021565018
 30
0.0
 11
89.0470035861
 21
19.4811021565018
 31
0.0
  0
LINE
  5
23E
330
8E
100
AcDbEntity
  8
Dick
100
AcDbLine
 10
69.95660281978701
 20
29.7811021565018
 30
0.0
 11
69.35944406238099
 21
30.7811021565018
 31
0.0
  0
LINE
  5
23F
330
8E
100
AcDbEntity
  8
Dick
100
AcDbLine
 10
69.95660281978701
 20
20.4811021565018
 30
0.0
 11
69.35944406238099
 21
19.4811021565018
 31
0.0
  0
LINE
  5
240
330
8E
100
AcDbEntity
  8
Mittellinie-K
100
AcDbLine
 10
79.20322382424001
 20
48.7170672947891
 30
0.0
 11
79.20322382424001
 21
1.0756630745691
 31
0.0
  0
LINE
  5
241
330
8E
100
AcDbEntity
  8
Mittellinie-K
100
AcDbLine
 10
52.20322382424001
 20
34.6311021565018
 30
0.0
 11
52.20322382424001
 21
15.6311021565018
 31
0.0
  0
LINE
  5
242
330
8E
100
AcDbEntity
  8
Dick
100
AcDbLine
 10
94.70322382424101
 20
81.1234191815988
 30
0.0
 11
63.70322382424001
 21
81.1234191815988
 31
0.0
  0
LINE
  5
243
330
8E
100
AcDbEntity
  8
Dick
100
AcDbLine
 10
69.35944406238099
 20
30.7811021565018
 30
0.0
 11
89.0470035861
 21
30.7811021565018
 31
0.0
  0
LINE
  5
244
330
8E
100
AcDbEntity
  8
Dick
100
AcDbLine
 10
69.35944406238099
 20
19.4811021565018
 30
0.0
 11
89.0470035861
 21
19.4811021565018
 31
0.0
  0
LINE
  5
245
330
8E
100
AcDbEntity
  8
Dick
100
AcDbLine
 10
69.95660281978701
 20
29.7811021565018
 30
0.0
 11
88.44984482869401
 21
29.7811021565018
 31
0.0
  0
LINE
  5
246
330
8E
100
AcDbEntity
  8
Dick
100
AcDbLine
 10
69.95660281978701
 20
20.4811021565018
 30
0.0
 11
88.44984482869401
 21
20.4811021565018
 31
0.0
  0
LINE
  5
247
330
8E
100
AcDbEntity
  8
Dick
100
AcDbLine
 10
43.20322382424001
 20
47.1311021565018
 30
0.0
 11
43.20322382424001
 21
3.1311021565018
 31
0.0
  0
LINE
  5
248
330
8E
100
AcDbEntity
  8
Mittellinie-K
100
AcDbLine
 10
79.20322382424001
 20
115.9666444722208
 30
0.0
 11
79.20322382424001
 21
79.9809615585178
 31
0.0
  0
LINE
  5
249
330
8E
100
AcDbEntity
  8
Dick
100
AcDbLine
 10
63.70322382424001
 20
89.1234191815988
 30
0.0
 11
63.70322382424001
 21
81.1234191815988
 31
0.0
  0
LINE
  5
24A
330
8E
100
AcDbEntity
  8
Dick
100
AcDbLine
 10
94.70322382424101
 20
89.1234191815988
 30
0.0
 11
94.70322382424101
 21
81.1234191815988
 31
0.0
  0
LINE
  5
24B
330
8E
100
AcDbEntity
  8
Dick
100
AcDbLine
 10
115.703223824241
 20
94.1234191815988
 30
0.0
 11
52.20322382424001
 21
94.1234191815988
 31
0.0
  0
LINE
  5
24C
102
{ACAD_REACTORS
330
2F0
330
2F0
102
}
330
8E
100
AcDbEntity
  8
Dick
100
AcDbLine
 10
52.20322382424001
 20
90.1234191815988
 30
0.0
 11
59.70322382424001
 21
90.1234191815988
 31
0.0
  0
LINE
  5
24D
330
8E
100
AcDbEntity
  8
Dick
100
AcDbLine
 10
115.70322382424
 20
91.1234191815988
 30
0.0
 11
112.453223824241
 21
91.1234191815988
 31
0.0
  0
LINE
  5
24E
330
8E
100
AcDbEntity
  8
Dick
100
AcDbLine
 10
143.203223824241
 20
3.1311021565018
 30
0.0
 11
43.20322382424001
 21
3.1311021565018
 31
0.0
  0
LINE
  5
24F
330
8E
100
AcDbEntity
  8
Mittellinie-K
100
AcDbLine
 10
42.10138190562199
 20
25.1311021565018
 30
0.0
 11
145.284337830493
 21
25.1311021565018
 31
0.0
  0
LINE
  5
250
330
8E
100
AcDbEntity
  8
Mittellinie-K
100
AcDbLine
 10
106.221185602064
 20
34.6311021565018
 30
0.0
 11
125.974509136733
 21
34.6311021565018
 31
0.0
  0
LINE
  5
251
330
8E
100
AcDbEntity
  8
Mittellinie-K
100
AcDbLine
 10
106.221185602064
 20
15.6311021565018
 30
0.0
 11
125.974509136733
 21
15.6311021565018
 31
0.0
  0
LINE
  5
252
102
{ACAD_REACTORS
330
2F0
330
2F0
102
}
330
8E
100
AcDbEntity
  8
1
  6
Continuous
 62
     1
100
AcDbLine
 10
144.203223824241
 20
94.1234191815988
 30
0.0
 11
199.494347107534
 21
94.1234191815988
 31
0.0
  0
LINE
  5
253
102
{ACAD_REACTORS
330
2F0
330
2F0
102
}
330
8E
100
AcDbEntity
  8
1
  6
Continuous
 62
     1
100
AcDbLine
 10
43.20322382424001
 20
94.1234191815988
 30
0.0
 11
-0.79677617575999
 21
94.1234191815988
 31
0.0
  0
LINE
  5
254
102
{ACAD_REACTORS
330
2F0
330
2F0
102
}
330
8E
100
AcDbEntity
  8
1
  6
Continuous
 62
     1
100
AcDbLine
 10
59.70322382424001
 20
90.1234191815988
 30
0.0
 11
59.70322382424001
 21
77.1234191815988
 31
0.0
  0
LINE
  5
255
330
8E
100
AcDbEntity
  8
Dick
100
AcDbLine
 10
59.70322382424001
 20
90.1234191815988
 30
0.0
 11
98.70322382424001
 21
90.1234191815988
 31
0.0
  0
LINE
  5
256
102
{ACAD_REACTORS
330
2F0
330
2F0
102
}
330
8E
100
AcDbEntity
  8
1
  6
Continuous
 62
     1
100
AcDbLine
 10
59.70322382424001
 20
77.1234191815988
 30
0.0
 11
98.70322382424001
 21
77.1234191815988
 31
0.0
  0
LINE
  5
257
102
{ACAD_REACTORS
330
2F0
330
2F0
102
}
330
8E
100
AcDbEntity
  8
1
  6
Continuous
 62
     1
100
AcDbLine
 10
98.70322382424001
 20
77.1234191815988
 30
0.0
 11
98.70322382424001
 21
90.1234191815988
 31
0.0
  0
LINE
  5
258
102
{ACAD_REACTORS
330
2F0
330
2F0
102
}
330
8E
100
AcDbEntity
  8
Dick
100
AcDbLine
 10
98.70322382424001
 20
90.1234191815988
 30
0.0
 11
144.203223824241
 21
90.1234191815988
 31
0.0
  0
LINE
  5
259
330
8E
100
AcDbEntity
  8
1
  6
DASHED
 62
     3
100
AcDbLine
 10
176.052564155769
 20
101.1234191815988
 30
0.0
 11
201.322012680703
 21
101.1234191815988
 31
0.0
  0
LINE
  5
25A
330
8E
100
AcDbEntity
  8
1
  6
DASHED
 62
     3
100
AcDbLine
 10
16.20322382424001
 20
150.123419181601
 30
0.0
 11
16.20322382424001
 21
174.0035935579478
 31
0.0
  0
ARC
  5
25B
330
8E
100
AcDbEntity
  8
Dick
100
AcDbCircle
 10
97.70322382424001
 20
95.1234191815988
 30
0.0
 40
1.0
100
AcDbArc
 50
0.0
 51
90.0
  0
ARC
  5
25C
330
8E
100
AcDbEntity
  8
Verdeckt
100
AcDbCircle
 10
97.70322382424001
 20
95.1234191815988
 30
0.0
 40
0.5
100
AcDbArc
 50
0.0
 51
90.0
  0
ARC
  5
25D
330
8E
100
AcDbEntity
  8
Verdeckt
100
AcDbCircle
 10
60.70322382424001
 20
95.1234191815988
 30
0.0
 40
0.5
100
AcDbArc
 50
90.0
 51
180.0
  0
ARC
  5
25E
330
8E
100
AcDbEntity
  8
Dick
100
AcDbCircle
 10
60.70322382424001
 20
95.1234191815988
 30
0.0
 40
1.0
100
AcDbArc
 50
90.0
 51
180.0
  0
ARC
  5
25F
330
8E
100
AcDbEntity
  8
Dick
100
AcDbCircle
 10
79.20322382424001
 20
25.1311021565018
 30
0.0
 40
10.35000000000048
100
AcDbArc
 50
-26.69720144949733
 51
26.69720144949733
  0
ARC
  5
260
330
8E
100
AcDbEntity
  8
Dick
100
AcDbCircle
 10
79.20322382424001
 20
25.1311021565018
 30
0.0
 40
11.35000000000019
100
AcDbArc
 50
-29.85438098125352
 51
29.85438098125352
  0
ARC
  5
261
330
8E
100
AcDbEntity
  8
Dick
100
AcDbCircle
 10
79.20322382424001
 20
25.1311021565018
 30
0.0
 40
10.34999999999959
100
AcDbArc
 50
153.3027985505002
 51
-153.3027985505002
  0
ARC
  5
262
330
8E
100
AcDbEntity
  8
Dick
100
AcDbCircle
 10
79.20322382424001
 20
25.1311021565018
 30
0.0
 40
11.34999999999935
100
AcDbArc
 50
150.145619018744
 51
-150.145619018744
  0
ARC
  5
263
330
8E
100
AcDbEntity
  8
Duenn
100
AcDbCircle
 10
79.20322382424001
 20
25.1311021565018
 30
0.0
 40
2.5
100
AcDbArc
 50
-90.0
 51
180.0
  0
CIRCLE
  5
264
330
8E
100
AcDbEntity
  8
Dick
100
AcDbCircle
 10
52.20322382424001
 20
25.1311021565018
 30
0.0
 40
3.25
  0
CIRCLE
  5
265
330
8E
100
AcDbEntity
  8
Dick
100
AcDbCircle
 10
79.20322382424001
 20
25.1033249103824
 30
0.0
 40
19.5
  0
CIRCLE
  5
266
330
8E
100
AcDbEntity
  8
Dick
100
AcDbCircle
 10
79.20322382424001
 20
25.1311021565018
 30
0.0
 40
12.69999999999999
  0
CIRCLE
  5
267
330
8E
100
AcDbEntity
  8
Dick
100
AcDbCircle
 10
79.20322382424001
 20
25.1311021565018
 30
0.0
 40
2.0
  0
CIRCLE
  5
268
330
8E
100
AcDbEntity
  8
Dick
100
AcDbCircle
 10
52.30322382424001
 20
25.1311021565019
 30
0.0
 40
6.25
  0
CIRCLE
  5
269
330
8E
100
AcDbEntity
  8
Dick
100
AcDbCircle
 10
115.70322382424
 20
34.6311021565018
 30
0.0
 40
6.25
  0
CIRCLE
  5
26A
330
8E
100
AcDbEntity
  8
Dick
100
AcDbCircle
 10
115.603223824241
 20
34.6311021565018
 30
0.0
 40
3.25
  0
CIRCLE
  5
26B
330
8E
100
AcDbEntity
  8
Dick
100
AcDbCircle
 10
115.70322382424
 20
15.6311021565018
 30
0.0
 40
6.25
  0
CIRCLE
  5
26C
330
8E
100
AcDbEntity
  8
Dick
100
AcDbCircle
 10
115.603223824241
 20
15.6311021565017
 30
0.0
 40
3.25
  0
TEXT
  5
26D
330
8E
100
AcDbEntity
  8
1
 62
     4
100
AcDbText
 10
252.502499180075
 20
41.8280520042891
 30
0.0
 40
2.5
  1
to use with PT10
 41
0.9
  7
CONVERTER_12
100
AcDbText
  0
TEXT
  5
26E
330
8E
100
AcDbEntity
  8
1
 62
     4
100
AcDbText
 10
252.502499180075
 20
50.3703748533601
 30
0.0
 40
3.5
  1
zur Verwendung mit PT10
 41
0.9
  7
CONVERTER_12
100
AcDbText
  0
TEXT
  5
26F
330
8E
100
AcDbEntity
  8
1
 62
     4
100
AcDbText
 10
252.914724996114
 20
69.744988207158
 30
0.0
 40
2.5
  1
leaf weight max. 150 kg
 41
0.9
  7
CONVERTER_12
100
AcDbText
  0
MTEXT
  5
270
330
8E
100
AcDbEntity
  8
1
 62
     4
100
AcDbMText
 10
252.502499180075
 20
79.2261819760378
 30
0.0
 40
3.5
 41
0.0
 71
     7
 72
     1
  1
T\U+00fcrgewicht max. 150 kg
  7
CONVERTER_12
 73
     1
 44
1.02040816326531
  0
DIMENSION
  5
27B
330
8E
100
AcDbEntity
  8
1
100
AcDbDimension
  2
*D21
 10
16.20322382424001
 20
161.0949560633298
 30
0.0
 11
46.0983724736192
 21
164.8449560633298
 31
0.0
 70
    32
  1
53/63
 71
     5
 42
-1.0
 53
0.00013888888889
  3
ME10_DIM_10
100
AcDbAlignedDimension
 13
79.20322382424001
 23
115.9666444722208
 33
0.0
 14
16.20322382424001
 24
128.1234191815999
 34
0.0
100
AcDbRotatedDimension
  0
DIMENSION
  5
288
330
8E
100
AcDbEntity
  8
1
100
AcDbDimension
  2
*D22
 10
4.22064482340602
 20
101.1234191815988
 30
0.0
 11
0.47064482340602
 21
97.61762208357891
 31
0.0
 70
    32
  1
<>
 71
     5
 42
-1.0
 53
90.0
  3
ME10_DIM_11
100
AcDbAlignedDimension
 13
43.20322382424001
 23
94.1234191815988
 33
0.0
 14
176.052564155769
 24
101.1234191815988
 34
0.0
 50
90.0
100
AcDbRotatedDimension
  0
DIMENSION
  5
293
330
8E
100
AcDbEntity
  8
1
100
AcDbDimension
  2
*D23
 10
31.57153108658088
 20
47.13110215650179
 30
0.0
 11
27.82153108658088
 21
25.20994693875609
 31
0.0
 70
    32
  1
<>
 71
     5
 42
-1.0
 53
90.0
  3
ME10_DIM_12
100
AcDbAlignedDimension
 13
43.20322382424001
 23
3.1311021565018
 33
0.0
 14
43.20322382424001
 24
47.1311021565018
 34
0.0
 50
90.0
100
AcDbRotatedDimension
  0
DIMENSION
  5
29E
330
8E
100
AcDbEntity
  8
1
100
AcDbDimension
  2
*D24
 10
158.852897951456
 20
15.6311021565018
 30
0.0
 11
155.102897951456
 21
25.21173886562551
 31
0.0
 70
    32
  1
<>
 71
     5
 42
-1.0
 53
90.0
  3
ME10_DIM_13
100
AcDbAlignedDimension
 13
125.974509136733
 23
34.6311021565018
 33
0.0
 14
125.974509136733
 24
15.6311021565018
 34
0.0
 50
90.0
100
AcDbRotatedDimension
  0
DIMENSION
  5
2A9
330
8E
100
AcDbEntity
  8
1
100
AcDbDimension
  2
*D25
 10
115.703223824241
 20
-9.6856651103712
 30
0.0
 11
130.3447212164689
 21
-5.9356651103712
 31
0.0
 70
    32
  1
<>
 71
     5
 42
-1.0
 53
0.00013888888889
  3
ME10_DIM_14
100
AcDbAlignedDimension
 13
143.203223824241
 23
3.1311021565018
 33
0.0
 14
115.703223824241
 24
6.4561037155702
 34
0.0
100
AcDbRotatedDimension
  0
DIMENSION
  5
2B6
330
8E
100
AcDbEntity
  8
1
100
AcDbDimension
  2
*D26
 10
52.20322382424001
 20
-10.0702009619267
 30
0.0
 11
47.8173953674676
 21
-6.3202009619267
 31
0.0
 70
    32
  1
<>
 71
     5
 42
-1.0
 53
0.00013888888889
  3
ME10_DIM_15
100
AcDbAlignedDimension
 13
43.20322382424001
 23
3.1311021565018
 33
0.0
 14
52.20322382424001
 24
15.6311021565018
 34
0.0
100
AcDbRotatedDimension
  0
DIMENSION
  5
2C1
330
8E
100
AcDbEntity
  8
1
100
AcDbDimension
  2
*D27
 10
79.20322382424001
 20
-21.1062765085921
 30
0.0
 11
59.7380067656886
 21
-17.3562765085921
 31
0.0
 70
    32
  1
<>
 71
     5
 42
-1.0
 53
0.00013888888889
  3
ME10_DIM_16
100
AcDbAlignedDimension
 13
43.20322382424001
 23
3.1311021565018
 33
0.0
 14
79.20322382424001
 24
1.0756630745691
 34
0.0
100
AcDbRotatedDimension
  0
DIMENSION
  5
2CC
330
8E
100
AcDbEntity
  8
1
100
AcDbDimension
  2
*D28
 10
43.20322382424001
 20
-31.8732803521466
 30
0.0
 11
90.03258131522
 21
-28.1232803521466
 31
0.0
 70
    32
  1
<>
 71
     5
 42
-1.0
 53
0.00013888888889
  3
ME10_DIM_17
100
AcDbAlignedDimension
 13
143.203223824241
 23
3.1311021565018
 33
0.0
 14
43.20322382424001
 24
3.1311021565018
 34
0.0
100
AcDbRotatedDimension
  0
DIMENSION
  5
2D7
330
8E
100
AcDbEntity
  8
1
100
AcDbDimension
  2
*D29
 10
94.70322382424101
 20
64.63856934316271
 30
0.0
 11
79.0410861559084
 21
68.38856934316271
 31
0.0
 70
    32
  1
<>
 71
     5
 42
-1.0
 53
0.00013888888889
  3
ME10_DIM_18
100
AcDbAlignedDimension
 13
63.70322382424001
 23
81.1234191815988
 33
0.0
 14
94.70322382424101
 24
81.1234191815988
 34
0.0
100
AcDbRotatedDimension
  0
DIMENSION
  5
2E4
330
8E
100
AcDbEntity
  8
1
100
AcDbDimension
  2
*D30
 10
11.80245938346984
 20
90.1234191815988
 30
0.0
 11
8.05245938346984
 21
97.6906148036043
 31
0.0
 70
    32
  1
<>
 71
     5
 42
-1.0
 53
90.0
  3
ME10_DIM_19
100
AcDbAlignedDimension
 13
43.20322382424001
 23
94.1234191815988
 33
0.0
 14
43.20322382424001
 24
90.1234191815988
 34
0.0
 50
90.0
100
AcDbRotatedDimension
  0
DIMENSION
  5
2EF
330
8E
100
AcDbEntity
  8
1
100
AcDbDimension
  2
*D31
 10
-7.8024029283515
 20
81.1234191815988
 30
0.0
 11
-11.5524029283515
 21
87.54018211523501
 31
0.0
 70
    32
  1
<>
 71
     5
 42
-1.0
 53
90.0
  3
ME10_DIM_20
100
AcDbAlignedDimension
 13
-0.79677617575999
 23
94.1234191815988
 33
0.0
 14
63.70322382424001
 24
81.1234191815988
 34
0.0
 50
90.0
100
AcDbRotatedDimension
  0
HATCH
  5
2F0
330
8E
100
AcDbEntity
  8
1
  6
Continuous
 62
     3
100
AcDbHatch
 10
0.0
 20
0.0
 30
0.0
210
0.0
220
0.0
230
1.0
  2
_USER
 70
     0
 71
     1
 91
        1
 92
        1
 93
       16
 72
     1
 10
199.494347107534
 20
94.1234191815988
 11
199.494347107534
 21
72.1234191815988
 72
     1
 10
199.494347107534
 20
72.1234191815988
 11
144.203223824241
 21
72.1234191815988
 72
     1
 10
144.203223824241
 20
72.1234191815988
 11
43.20322382424001
 21
72.1234191815988
 72
     1
 10
43.20322382424001
 20
72.1234191815988
 11
-3.67440427997002
 21
72.1234191815988
 72
     1
 10
-3.67440427997002
 20
72.1234191815988
 11
-3.67440427997002
 21
94.1234191815988
 72
     1
 10
-3.67440427997002
 20
94.1234191815988
 11
-0.7967761757599874
 21
94.1234191815988
 72
     1
 10
-0.7967761757599874
 20
94.1234191815988
 11
43.20322382424001
 21
94.1234191815988
 72
     1
 10
43.20322382424001
 20
94.1234191815988
 11
43.20322382424001
 21
90.1234191815988
 72
     1
 10
43.20322382424001
 20
90.1234191815988
 11
52.20322382424001
 21
90.1234191815988
 72
     1
 10
52.20322382424001
 20
90.1234191815988
 11
59.70322382424001
 21
90.1234191815988
 72
     1
 10
59.70322382424001
 20
90.1234191815988
 11
59.70322382424001
 21
77.1234191815988
 72
     1
 10
59.70322382424001
 20
77.1234191815988
 11
98.70322382424001
 21
77.1234191815988
 72
     1
 10
98.70322382424001
 20
77.1234191815988
 11
98.70322382424001
 21
90.1234191815988
 72
     1
 10
98.70322382424001
 20
90.1234191815988
 11
144.203223824241
 21
90.1234191815988
 72
     1
 10
144.203223824241
 20
90.1234191815988
 11
144.203223824241
 21
94.1234191815988
 72
     1
 10
144.203223824241
 20
94.1234191815988
 11
199.494347107534
 21
94.1234191815988
 97
       16
330
208
330
206
330
209
330
205
330
204
330
203
330
253
330
238
330
239
330
24C
330
254
330
256
330
257
330
258
330
211
330
252
 75
     1
 76
     0
 52
45.0
 41
2.0
 77
     0
 78
     1
 53
45.0
 43
0.0
 44
0.0
 45
-1.414213562373095
 46
1.414213562373095
 79
     0
 98
        1
 10
0.0
 20
0.0
  0
ENDBLK
  5
94
330
8E
100
AcDbEntity
  8
0
100
AcDbBlockEnd
  0
BLOCK
  5
97
330
95
100
AcDbEntity
  8
0
100
AcDbBlockBegin
  2
1__16
 70
     0
 71
     0
 10
100190.0
 20
101900.0
 30
0.0
  3
1__16
  1

  0
INSERT
  5
96
330
95
100
AcDbEntity
  8
0
100
AcDbBlockReference
  2
TOP__15
 10
149.4573969422535
 20
67.69787335430209
 30
0.0
  0
ENDBLK
  5
98
330
95
100
AcDbEntity
  8
0
100
AcDbBlockEnd
  0
BLOCK
  5
278
330
271
100
AcDbEntity
  8
0
100
AcDbBlockBegin
  2
*D21
 70
     1
 71
     0
 10
0.0
 20
0.0
 30
0.0
  3
*D21
  1

  0
LINE
  5
272
330
271
100
AcDbEntity
  8
1
  6
Continuous
 62
     3
100
AcDbLine
 10
16.20322382424001
 20
161.0949560633298
 30
0.0
 11
79.20322382424001
 21
161.0949560633298
 31
0.0
  0
LINE
  5
273
330
271
100
AcDbEntity
  8
1
  6
Continuous
 62
     3
100
AcDbLine
 10
79.20322382424001
 20
115.9666444722208
 30
0.0
 11
79.20322382424001
 21
163.0949560633298
 31
0.0
  0
LINE
  5
274
330
271
100
AcDbEntity
  8
1
  6
Continuous
 62
     3
100
AcDbLine
 10
16.20322382424001
 20
128.1234191815999
 30
0.0
 11
16.20322382424001
 21
163.0949560633298
 31
0.0
  0
SOLID
  5
275
330
271
100
AcDbEntity
  8
1
 62
     3
100
AcDbTrace
 10
19.70322382424001
 20
161.5557398048857
 30
0.0
 11
19.70322382424001
 21
160.6341723217739
 31
0.0
 12
16.20322382424001
 22
161.0949560633298
 32
0.0
 13
16.20322382424001
 23
161.0949560633298
 33
0.0
  0
SOLID
  5
276
330
271
100
AcDbEntity
  8
1
 62
     3
100
AcDbTrace
 10
75.70322382424001
 20
160.6341723217739
 30
0.0
 11
75.70322382424001
 21
161.5557398048857
 31
0.0
 12
79.20322382424001
 22
161.0949560633298
 32
0.0
 13
79.20322382424001
 23
161.0949560633298
 33
0.0
  0
MTEXT
  5
277
330
271
100
AcDbEntity
  8
1
 62
     4
100
AcDbMText
 10
39.0983724736192
 20
163.0949560633298
 30
0.0
 40
3.5
 41
0.0
 71
     7
 72
     1
  1
53/63
  7
CONVERTER_12
 11
0.9999999999970619
 21
2.424068405545306E-6
 31
0.0
 73
     1
 44
0.60024009603842
  0
ENDBLK
  5
279
330
271
100
AcDbEntity
  8
0
100
AcDbBlockEnd
  0
BLOCK
  5
285
330
27C
100
AcDbEntity
  8
0
100
AcDbBlockBegin
  2
*D22
 70
     1
 71
     0
 10
0.0
 20
0.0
 30
0.0
  3
*D22
  1

  0
LINE
  5
27D
330
27C
100
AcDbEntity
  8
1
  6
Continuous
 62
     3
100
AcDbLine
 10
4.22064482340602
 20
108.1234191815988
 30
0.0
 11
4.22064482340602
 21
101.1234191815988
 31
0.0
  0
LINE
  5
27E
330
27C
100
AcDbEntity
  8
1
  6
Continuous
 62
     3
100
AcDbLine
 10
4.22064482340602
 20
101.1234191815988
 30
0.0
 11
4.22064482340602
 21
94.1234191815988
 31
0.0
  0
LINE
  5
27F
330
27C
100
AcDbEntity
  8
1
  6
Continuous
 62
     3
100
AcDbLine
 10
4.22064482340602
 20
94.1234191815988
 30
0.0
 11
4.22064482340602
 21
87.1234191815988
 31
0.0
  0
LINE
  5
280
330
27C
100
AcDbEntity
  8
1
  6
Continuous
 62
     3
100
AcDbLine
 10
176.052564155769
 20
101.1234191815988
 30
0.0
 11
2.22064482340602
 21
101.1234191815988
 31
0.0
  0
LINE
  5
281
330
27C
100
AcDbEntity
  8
1
  6
Continuous
 62
     3
100
AcDbLine
 10
43.20322382424001
 20
94.1234191815988
 30
0.0
 11
2.22064482340602
 21
94.1234191815988
 31
0.0
  0
SOLID
  5
282
330
27C
100
AcDbEntity
  8
1
 62
     3
100
AcDbTrace
 10
3.75986108185013
 20
104.6234191815988
 30
0.0
 11
4.68142856496191
 21
104.6234191815988
 31
0.0
 12
4.22064482340602
 22
101.1234191815988
 32
0.0
 13
4.22064482340602
 23
101.1234191815988
 33
0.0
  0
SOLID
  5
283
330
27C
100
AcDbEntity
  8
1
 62
     3
100
AcDbTrace
 10
4.6814285649619
 20
90.6234191815988
 30
0.0
 11
3.75986108185013
 21
90.6234191815988
 31
0.0
 12
4.22064482340602
 22
94.1234191815988
 32
0.0
 13
4.22064482340602
 23
94.1234191815988
 33
0.0
  0
MTEXT
  5
284
330
27C
100
AcDbEntity
  8
1
 62
     4
100
AcDbMText
 10
2.22064482340602
 20
96.56762208357891
 30
0.0
 40
3.5
 41
0.0
 71
     7
 72
     1
  1
7
  7
CONVERTER_12
 11
0.0
 21
1.0
 31
0.0
 73
     1
 44
0.60024009603842
  0
ENDBLK
  5
286
330
27C
100
AcDbEntity
  8
0
100
AcDbBlockEnd
  0
BLOCK
  5
290
330
289
100
AcDbEntity
  8
0
100
AcDbBlockBegin
  2
*D23
 70
     1
 71
     0
 10
0.0
 20
0.0
 30
0.0
  3
*D23
  1

  0
LINE
  5
28A
330
289
100
AcDbEntity
  8
1
  6
Continuous
 62
     3
100
AcDbLine
 10
31.57153108658088
 20
47.13110215650179
 30
0.0
 11
31.57153108658088
 21
3.13110215650179
 31
0.0
  0
LINE
  5
28B
330
289
100
AcDbEntity
  8
1
  6
Continuous
 62
     3
100
AcDbLine
 10
43.20322382424001
 20
3.1311021565018
 30
0.0
 11
29.57153108658088
 21
3.1311021565018
 31
0.0
  0
LINE
  5
28C
330
289
100
AcDbEntity
  8
1
  6
Continuous
 62
     3
100
AcDbLine
 10
43.20322382424001
 20
47.13110215650179
 30
0.0
 11
29.57153108658088
 21
47.13110215650179
 31
0.0
  0
SOLID
  5
28D
330
289
100
AcDbEntity
  8
1
 62
     3
100
AcDbTrace
 10
32.03231482813676
 20
43.63110215650179
 30
0.0
 11
31.11074734502499
 21
43.63110215650179
 31
0.0
 12
31.57153108658088
 22
47.13110215650179
 32
0.0
 13
31.57153108658088
 23
47.13110215650179
 33
0.0
  0
SOLID
  5
28E
330
289
100
AcDbEntity
  8
1
 62
     3
100
AcDbTrace
 10
31.11074734502499
 20
6.63110215650179
 30
0.0
 11
32.03231482813676
 21
6.63110215650179
 31
0.0
 12
31.57153108658088
 22
3.13110215650179
 32
0.0
 13
31.57153108658088
 23
3.13110215650179
 33
0.0
  0
MTEXT
  5
28F
330
289
100
AcDbEntity
  8
1
 62
     4
100
AcDbMText
 10
29.57153108658088
 20
22.58494693875609
 30
0.0
 40
3.5
 41
0.0
 71
     7
 72
     1
  1
44
  7
CONVERTER_12
 11
0.0
 21
1.0
 31
0.0
 73
     1
 44
0.60024009603842
  0
ENDBLK
  5
291
330
289
100
AcDbEntity
  8
0
100
AcDbBlockEnd
  0
BLOCK
  5
29B
330
294
100
AcDbEntity
  8
0
100
AcDbBlockBegin
  2
*D24
 70
     1
 71
     0
 10
0.0
 20
0.0
 30
0.0
  3
*D24
  1

  0
LINE
  5
295
330
294
100
AcDbEntity
  8
1
  6
Continuous
 62
     3
100
AcDbLine
 10
158.852897951456
 20
15.6311021565018
 30
0.0
 11
158.852897951456
 21
34.6311021565018
 31
0.0
  0
LINE
  5
296
330
294
100
AcDbEntity
  8
1
  6
Continuous
 62
     3
100
AcDbLine
 10
125.974509136733
 20
15.6311021565018
 30
0.0
 11
160.852897951456
 21
15.6311021565018
 31
0.0
  0
LINE
  5
297
330
294
100
AcDbEntity
  8
1
  6
Continuous
 62
     3
100
AcDbLine
 10
125.974509136733
 20
34.6311021565018
 30
0.0
 11
160.852897951456
 21
34.6311021565018
 31
0.0
  0
SOLID
  5
298
330
294
100
AcDbEntity
  8
1
 62
     3
100
AcDbTrace
 10
158.3921142099001
 20
19.1311021565018
 30
0.0
 11
159.3136816930119
 21
19.1311021565018
 31
0.0
 12
158.852897951456
 22
15.6311021565018
 32
0.0
 13
158.852897951456
 23
15.6311021565018
 33
0.0
  0
SOLID
  5
299
330
294
100
AcDbEntity
  8
1
 62
     3
100
AcDbTrace
 10
159.3136816930119
 20
31.1311021565018
 30
0.0
 11
158.3921142099001
 21
31.1311021565018
 31
0.0
 12
158.852897951456
 22
34.6311021565018
 32
0.0
 13
158.852897951456
 23
34.6311021565018
 33
0.0
  0
MTEXT
  5
29A
330
294
100
AcDbEntity
  8
1
 62
     4
100
AcDbMText
 10
156.852897951456
 20
23.11173886562551
 30
0.0
 40
3.5
 41
0.0
 71
     7
 72
     1
  1
19
  7
CONVERTER_12
 11
0.0
 21
1.0
 31
0.0
 73
     1
 44
0.60024009603842
  0
ENDBLK
  5
29C
330
294
100
AcDbEntity
  8
0
100
AcDbBlockEnd
  0
BLOCK
  5
2A6
330
29F
100
AcDbEntity
  8
0
100
AcDbBlockBegin
  2
*D25
 70
     1
 71
     0
 10
0.0
 20
0.0
 30
0.0
  3
*D25
  1

  0
LINE
  5
2A0
330
29F
100
AcDbEntity
  8
1
  6
Continuous
 62
     3
100
AcDbLine
 10
115.703223824241
 20
-9.6856651103712
 30
0.0
 11
143.203223824241
 21
-9.6856651103712
 31
0.0
  0
LINE
  5
2A1
330
29F
100
AcDbEntity
  8
1
  6
Continuous
 62
     3
100
AcDbLine
 10
143.203223824241
 20
3.1311021565018
 30
0.0
 11
143.203223824241
 21
-11.6856651103712
 31
0.0
  0
LINE
  5
2A2
330
29F
100
AcDbEntity
  8
1
  6
Continuous
 62
     3
100
AcDbLine
 10
115.703223824241
 20
6.4561037155702
 30
0.0
 11
115.703223824241
 21
-11.6856651103712
 31
0.0
  0
SOLID
  5
2A3
330
29F
100
AcDbEntity
  8
1
 62
     3
100
AcDbTrace
 10
119.203223824241
 20
-9.22488136881531
 30
0.0
 11
119.203223824241
 21
-10.14644885192709
 31
0.0
 12
115.703223824241
 22
-9.6856651103712
 32
0.0
 13
115.703223824241
 23
-9.6856651103712
 33
0.0
  0
SOLID
  5
2A4
330
29F
100
AcDbEntity
  8
1
 62
     3
100
AcDbTrace
 10
139.703223824241
 20
-10.14644885192708
 30
0.0
 11
139.703223824241
 21
-9.22488136881531
 31
0.0
 12
143.203223824241
 22
-9.6856651103712
 32
0.0
 13
143.203223824241
 23
-9.6856651103712
 33
0.0
  0
MTEXT
  5
2A5
330
29F
100
AcDbEntity
  8
1
 62
     4
100
AcDbMText
 10
125.5759712164689
 20
-7.6856651103712
 30
0.0
 40
3.5
 41
0.0
 71
     7
 72
     1
  1
27.5
  7
CONVERTER_12
 11
0.9999999999970619
 21
2.424068405545306E-6
 31
0.0
 73
     1
 44
0.60024009603842
  0
ENDBLK
  5
2A7
330
29F
100
AcDbEntity
  8
0
100
AcDbBlockEnd
  0
BLOCK
  5
2B3
330
2AA
100
AcDbEntity
  8
0
100
AcDbBlockBegin
  2
*D26
 70
     1
 71
     0
 10
0.0
 20
0.0
 30
0.0
  3
*D26
  1

  0
LINE
  5
2AB
330
2AA
100
AcDbEntity
  8
1
  6
Continuous
 62
     3
100
AcDbLine
 10
43.20322382424001
 20
-10.0702009619267
 30
0.0
 11
36.20322382424002
 21
-10.0702009619267
 31
0.0
  0
LINE
  5
2AC
330
2AA
100
AcDbEntity
  8
1
  6
Continuous
 62
     3
100
AcDbLine
 10
52.20322382424001
 20
-10.0702009619267
 30
0.0
 11
43.20322382424001
 21
-10.0702009619267
 31
0.0
  0
LINE
  5
2AD
330
2AA
100
AcDbEntity
  8
1
  6
Continuous
 62
     3
100
AcDbLine
 10
59.20322382424002
 20
-10.0702009619267
 30
0.0
 11
52.20322382424001
 21
-10.0702009619267
 31
0.0
  0
LINE
  5
2AE
330
2AA
100
AcDbEntity
  8
1
  6
Continuous
 62
     3
100
AcDbLine
 10
43.20322382424001
 20
3.1311021565018
 30
0.0
 11
43.20322382424001
 21
-12.0702009619267
 31
0.0
  0
LINE
  5
2AF
330
2AA
100
AcDbEntity
  8
1
  6
Continuous
 62
     3
100
AcDbLine
 10
52.20322382424001
 20
15.6311021565018
 30
0.0
 11
52.20322382424001
 21
-12.0702009619267
 31
0.0
  0
SOLID
  5
2B0
330
2AA
100
AcDbEntity
  8
1
 62
     3
100
AcDbTrace
 10
55.70322382424001
 20
-9.60941722037082
 30
0.0
 11
55.70322382424001
 21
-10.53098470348259
 31
0.0
 12
52.20322382424001
 22
-10.0702009619267
 32
0.0
 13
52.20322382424001
 23
-10.0702009619267
 33
0.0
  0
SOLID
  5
2B1
330
2AA
100
AcDbEntity
  8
1
 62
     3
100
AcDbTrace
 10
39.70322382424001
 20
-10.53098470348259
 30
0.0
 11
39.70322382424001
 21
-9.60941722037082
 31
0.0
 12
43.20322382424001
 22
-10.0702009619267
 32
0.0
 13
43.20322382424001
 23
-10.0702009619267
 33
0.0
  0
MTEXT
  5
2B2
330
2AA
100
AcDbEntity
  8
1
 62
     4
100
AcDbMText
 10
46.7673953674676
 20
-8.0702009619267
 30
0.0
 40
3.5
 41
0.0
 71
     7
 72
     1
  1
9
  7
CONVERTER_12
 11
0.9999999999970619
 21
2.424068405545306E-6
 31
0.0
 73
     1
 44
0.60024009603842
  0
ENDBLK
  5
2B4
330
2AA
100
AcDbEntity
  8
0
100
AcDbBlockEnd
  0
BLOCK
  5
2BE
330
2B7
100
AcDbEntity
  8
0
100
AcDbBlockBegin
  2
*D27
 70
     1
 71
     0
 10
0.0
 20
0.0
 30
0.0
  3
*D27
  1

  0
LINE
  5
2B8
330
2B7
100
AcDbEntity
  8
1
  6
Continuous
 62
     3
100
AcDbLine
 10
79.20322382424001
 20
-21.1062765085921
 30
0.0
 11
43.20322382424001
 21
-21.1062765085921
 31
0.0
  0
LINE
  5
2B9
330
2B7
100
AcDbEntity
  8
1
  6
Continuous
 62
     3
100
AcDbLine
 10
43.20322382424001
 20
3.1311021565018
 30
0.0
 11
43.20322382424001
 21
-23.1062765085921
 31
0.0
  0
LINE
  5
2BA
330
2B7
100
AcDbEntity
  8
1
  6
Continuous
 62
     3
100
AcDbLine
 10
79.20322382424001
 20
1.0756630745691
 30
0.0
 11
79.20322382424001
 21
-23.1062765085921
 31
0.0
  0
SOLID
  5
2BB
330
2B7
100
AcDbEntity
  8
1
 62
     3
100
AcDbTrace
 10
75.70322382424001
 20
-21.56706025014799
 30
0.0
 11
75.70322382424001
 21
-20.64549276703621
 31
0.0
 12
79.20322382424001
 22
-21.1062765085921
 32
0.0
 13
79.20322382424001
 23
-21.1062765085921
 33
0.0
  0
SOLID
  5
2BC
330
2B7
100
AcDbEntity
  8
1
 62
     3
100
AcDbTrace
 10
46.70322382424001
 20
-20.64549276703621
 30
0.0
 11
46.70322382424001
 21
-21.56706025014799
 31
0.0
 12
43.20322382424001
 22
-21.1062765085921
 32
0.0
 13
43.20322382424001
 23
-21.1062765085921
 33
0.0
  0
MTEXT
  5
2BD
330
2B7
100
AcDbEntity
  8
1
 62
     4
100
AcDbMText
 10
57.1130067656886
 20
-19.1062765085921
 30
0.0
 40
3.5
 41
0.0
 71
     7
 72
     1
  1
36
  7
CONVERTER_12
 11
0.9999999999970619
 21
2.424068405545306E-6
 31
0.0
 73
     1
 44
0.60024009603842
  0
ENDBLK
  5
2BF
330
2B7
100
AcDbEntity
  8
0
100
AcDbBlockEnd
  0
BLOCK
  5
2C9
330
2C2
100
AcDbEntity
  8
0
100
AcDbBlockBegin
  2
*D28
 70
     1
 71
     0
 10
0.0
 20
0.0
 30
0.0
  3
*D28
  1

  0
LINE
  5
2C3
330
2C2
100
AcDbEntity
  8
1
  6
Continuous
 62
     3
100
AcDbLine
 10
43.20322382424001
 20
-31.8732803521466
 30
0.0
 11
143.203223824241
 21
-31.8732803521466
 31
0.0
  0
LINE
  5
2C4
330
2C2
100
AcDbEntity
  8
1
  6
Continuous
 62
     3
100
AcDbLine
 10
143.203223824241
 20
3.1311021565018
 30
0.0
 11
143.203223824241
 21
-33.8732803521466
 31
0.0
  0
LINE
  5
2C5
330
2C2
100
AcDbEntity
  8
1
  6
Continuous
 62
     3
100
AcDbLine
 10
43.20322382424001
 20
3.1311021565018
 30
0.0
 11
43.20322382424001
 21
-33.8732803521466
 31
0.0
  0
SOLID
  5
2C6
330
2C2
100
AcDbEntity
  8
1
 62
     3
100
AcDbTrace
 10
46.70322382424001
 20
-31.41249661059071
 30
0.0
 11
46.70322382424001
 21
-32.33406409370249
 31
0.0
 12
43.20322382424001
 22
-31.8732803521466
 32
0.0
 13
43.20322382424001
 23
-31.8732803521466
 33
0.0
  0
SOLID
  5
2C7
330
2C2
100
AcDbEntity
  8
1
 62
     3
100
AcDbTrace
 10
139.703223824241
 20
-32.33406409370249
 30
0.0
 11
139.703223824241
 21
-31.41249661059071
 31
0.0
 12
143.203223824241
 22
-31.8732803521466
 32
0.0
 13
143.203223824241
 23
-31.8732803521466
 33
0.0
  0
MTEXT
  5
2C8
330
2C2
100
AcDbEntity
  8
1
 62
     4
100
AcDbMText
 10
86.35758131522
 20
-29.8732803521466
 30
0.0
 40
3.5
 41
0.0
 71
     7
 72
     1
  1
100
  7
CONVERTER_12
 11
0.9999999999970619
 21
2.424068405545306E-6
 31
0.0
 73
     1
 44
0.60024009603842
  0
ENDBLK
  5
2CA
330
2C2
100
AcDbEntity
  8
0
100
AcDbBlockEnd
  0
BLOCK
  5
2D4
330
2CD
100
AcDbEntity
  8
0
100
AcDbBlockBegin
  2
*D29
 70
     1
 71
     0
 10
0.0
 20
0.0
 30
0.0
  3
*D29
  1

  0
LINE
  5
2CE
330
2CD
100
AcDbEntity
  8
1
  6
Continuous
 62
     3
100
AcDbLine
 10
94.70322382424101
 20
64.63856934316271
 30
0.0
 11
63.70322382424001
 21
64.63856934316271
 31
0.0
  0
LINE
  5
2CF
330
2CD
100
AcDbEntity
  8
1
  6
Continuous
 62
     3
100
AcDbLine
 10
94.70322382424101
 20
81.12341918159882
 30
0.0
 11
94.70322382424101
 21
62.63856934316271
 31
0.0
  0
LINE
  5
2D0
330
2CD
100
AcDbEntity
  8
1
  6
Continuous
 62
     3
100
AcDbLine
 10
63.70322382424001
 20
81.12341918159882
 30
0.0
 11
63.70322382424001
 21
62.63856934316271
 31
0.0
  0
SOLID
  5
2D1
330
2CD
100
AcDbEntity
  8
1
 62
     3
100
AcDbTrace
 10
91.20322382424101
 20
64.17778560160683
 30
0.0
 11
91.20322382424101
 21
65.0993530847186
 31
0.0
 12
94.70322382424101
 22
64.63856934316271
 32
0.0
 13
94.70322382424101
 23
64.63856934316271
 33
0.0
  0
SOLID
  5
2D2
330
2CD
100
AcDbEntity
  8
1
 62
     3
100
AcDbTrace
 10
67.20322382424001
 20
65.0993530847186
 30
0.0
 11
67.20322382424001
 21
64.17778560160683
 31
0.0
 12
63.70322382424001
 22
64.63856934316271
 32
0.0
 13
63.70322382424001
 23
64.63856934316271
 33
0.0
  0
MTEXT
  5
2D3
330
2CD
100
AcDbEntity
  8
1
 62
     4
100
AcDbMText
 10
70.4310861559337
 20
66.63854847193375
 30
0.0
 40
3.5
 41
0.0
 71
     7
 72
     1
  1
\C4;{\Fgdt;n}\C4;31
  7
CONVERTER_12
 11
0.9999999999970619
 21
2.424068405545306E-6
 31
0.0
 73
     1
 44
0.60024009603842
  0
ENDBLK
  5
2D5
330
2CD
100
AcDbEntity
  8
0
100
AcDbBlockEnd
  0
BLOCK
  5
2E1
330
2D8
100
AcDbEntity
  8
0
100
AcDbBlockBegin
  2
*D30
 70
     1
 71
     0
 10
0.0
 20
0.0
 30
0.0
  3
*D30
  1

  0
LINE
  5
2D9
330
2D8
100
AcDbEntity
  8
1
  6
Continuous
 62
     3
100
AcDbLine
 10
11.80245938346984
 20
83.1234191815988
 30
0.0
 11
11.80245938346984
 21
90.1234191815988
 31
0.0
  0
LINE
  5
2DA
330
2D8
100
AcDbEntity
  8
1
  6
Continuous
 62
     3
100
AcDbLine
 10
11.80245938346984
 20
90.1234191815988
 30
0.0
 11
11.80245938346984
 21
94.1234191815988
 31
0.0
  0
LINE
  5
2DB
330
2D8
100
AcDbEntity
  8
1
  6
Continuous
 62
     3
100
AcDbLine
 10
11.80245938346984
 20
94.1234191815988
 30
0.0
 11
11.80245938346984
 21
101.1234191815988
 31
0.0
  0
LINE
  5
2DC
330
2D8
100
AcDbEntity
  8
1
  6
Continuous
 62
     3
100
AcDbLine
 10
43.20322382424003
 20
90.1234191815988
 30
0.0
 11
9.80245938346984
 21
90.1234191815988
 31
0.0
  0
LINE
  5
2DD
330
2D8
100
AcDbEntity
  8
1
  6
Continuous
 62
     3
100
AcDbLine
 10
43.20322382424003
 20
94.1234191815988
 30
0.0
 11
9.80245938346984
 21
94.1234191815988
 31
0.0
  0
SOLID
  5
2DE
330
2D8
100
AcDbEntity
  8
1
 62
     3
100
AcDbTrace
 10
12.26324312502573
 20
86.6234191815988
 30
0.0
 11
11.34167564191396
 21
86.6234191815988
 31
0.0
 12
11.80245938346984
 22
90.1234191815988
 32
0.0
 13
11.80245938346984
 23
90.1234191815988
 33
0.0
  0
SOLID
  5
2DF
330
2D8
100
AcDbEntity
  8
1
 62
     3
100
AcDbTrace
 10
11.34167564191396
 20
97.6234191815988
 30
0.0
 11
12.26324312502573
 21
97.6234191815988
 31
0.0
 12
11.80245938346984
 22
94.1234191815988
 32
0.0
 13
11.80245938346984
 23
94.1234191815988
 33
0.0
  0
MTEXT
  5
2E0
330
2D8
100
AcDbEntity
  8
1
 62
     4
100
AcDbMText
 10
9.80245938346984
 20
96.64061480360431
 30
0.0
 40
3.5
 41
0.0
 71
     7
 72
     1
  1
4
  7
CONVERTER_12
 11
0.0
 21
1.0
 31
0.0
 73
     1
 44
0.60024009603842
  0
ENDBLK
  5
2E2
330
2D8
100
AcDbEntity
  8
0
100
AcDbBlockEnd
  0
BLOCK
  5
2EC
330
2E5
100
AcDbEntity
  8
0
100
AcDbBlockBegin
  2
*D31
 70
     1
 71
     0
 10
0.0
 20
0.0
 30
0.0
  3
*D31
  1

  0
LINE
  5
2E6
330
2E5
100
AcDbEntity
  8
1
  6
Continuous
 62
     3
100
AcDbLine
 10
-7.8024029283515
 20
81.1234191815988
 30
0.0
 11
-7.8024029283515
 21
94.1234191815988
 31
0.0
  0
LINE
  5
2E7
330
2E5
100
AcDbEntity
  8
1
  6
Continuous
 62
     3
100
AcDbLine
 10
63.70322382424001
 20
81.1234191815988
 30
0.0
 11
-9.8024029283515
 21
81.1234191815988
 31
0.0
  0
LINE
  5
2E8
330
2E5
100
AcDbEntity
  8
1
  6
Continuous
 62
     3
100
AcDbLine
 10
-0.79677617575999
 20
94.1234191815988
 30
0.0
 11
-9.8024029283515
 21
94.1234191815988
 31
0.0
  0
SOLID
  5
2E9
330
2E5
100
AcDbEntity
  8
1
 62
     3
100
AcDbTrace
 10
-8.26318666990739
 20
84.6234191815988
 30
0.0
 11
-7.34161918679561
 21
84.6234191815988
 31
0.0
 12
-7.8024029283515
 22
81.1234191815988
 32
0.0
 13
-7.8024029283515
 23
81.1234191815988
 33
0.0
  0
SOLID
  5
2EA
330
2E5
100
AcDbEntity
  8
1
 62
     3
100
AcDbTrace
 10
-7.34161918679562
 20
90.6234191815988
 30
0.0
 11
-8.26318666990739
 21
90.6234191815988
 31
0.0
 12
-7.8024029283515
 22
94.1234191815988
 32
0.0
 13
-7.8024029283515
 23
94.1234191815988
 33
0.0
  0
MTEXT
  5
2EB
330
2E5
100
AcDbEntity
  8
1
 62
     4
100
AcDbMText
 10
-9.8024029283515
 20
85.44018211523502
 30
0.0
 40
3.5
 41
0.0
 71
     7
 72
     1
  1
13
  7
CONVERTER_12
 11
0.0
 21
1.0
 31
0.0
 73
     1
 44
0.60024009603842
  0
ENDBLK
  5
2ED
330
2E5
100
AcDbEntity
  8
0
100
AcDbBlockEnd
  0
ENDSEC
  0
SECTION
  2
ENTITIES
  0
INSERT
  5
99
330
1F
100
AcDbEntity
  8
1
100
AcDbBlockReference
  2
1__16
 10
100190.0
 20
101900.0
 30
0.0
  0
ENDSEC
  0
SECTION
  2
OBJECTS
  0
DICTIONARY
  5
C
330
0
100
AcDbDictionary
281
     1
  3
ACAD_GROUP
350
D
  3
ACAD_LAYOUT
350
1A
  3
ACAD_MLINESTYLE
350
17
  3
ACAD_PLOTSETTINGS
350
19
  3
ACAD_PLOTSTYLENAME
350
E
  3
ACAD_TABLESTYLE
350
2F1
  3
ACAD_VISUALSTYLE
350
2A
  0
DICTIONARY
  5
D
102
{ACAD_REACTORS
330
C
102
}
330
C
100
AcDbDictionary
281
     1
  0
DICTIONARY
  5
1A
102
{ACAD_REACTORS
330
C
102
}
330
C
100
AcDbDictionary
281
     1
  3
Layout1
350
1E
  3
Layout2
350
26
  3
Model
350
22
  0
DICTIONARY
  5
17
102
{ACAD_REACTORS
330
C
102
}
330
C
100
AcDbDictionary
281
     1
  3
Standard
350
18
  0
DICTIONARY
  5
19
102
{ACAD_REACTORS
330
C
102
}
330
C
100
AcDbDictionary
281
     1
  0
ACDBDICTIONARYWDFLT
  5
E
102
{ACAD_REACTORS
330
C
102
}
330
C
100
AcDbDictionary
281
     1
  3
Normal
350
F
100
AcDbDictionaryWithDefault
340
F
  0
DICTIONARY
  5
2F1
102
{ACAD_REACTORS
330
C
102
}
330
C
100
AcDbDictionary
281
     1
  0
DICTIONARY
  5
2A
102
{ACAD_REACTORS
330
C
102
}
330
C
100
AcDbDictionary
281
     1
  3
2dWireframe
350
2F
  3
3D Hidden
350
31
  3
3dWireframe
350
30
  3
Basic
350
32
  3
Brighten
350
36
  3
ColorChange
350
3A
  3
Conceptual
350
34
  3
Dim
350
35
  3
Facepattern
350
39
  3
Flat
350
2B
  3
FlatWithEdges
350
2C
  3
Gouraud
350
2D
  3
GouraudWithEdges
350
2E
  3
Linepattern
350
38
  3
Realistic
350
33
  3
Thicken
350
37
  0
LAYOUT
  5
1E
102
{ACAD_REACTORS
330
1A
102
}
330
1A
100
AcDbPlotSettings
  1

  2
none_device
  4

  6

 40
0.0
 41
0.0
 42
0.0
 43
0.0
 44
0.0
 45
0.0
 46
0.0
 47
0.0
 48
0.0
 49
0.0
140
0.0
141
0.0
142
1.0
143
1.0
 70
   688
 72
     0
 73
     0
 74
     5
  7

 75
    16
147
1.0
148
0.0
149
0.0
100
AcDbLayout
  1
Layout1
 70
     1
 71
     1
 10
0.0
 20
0.0
 11
12.0
 21
9.0
 12
0.0
 22
0.0
 32
0.0
 14
1.00000000000000E+20
 24
1.00000000000000E+20
 34
1.00000000000000E+20
 15
-1.00000000000000E+20
 25
-1.00000000000000E+20
 35
-1.00000000000000E+20
146
0.0
 13
0.0
 23
0.0
 33
0.0
 16
1.0
 26
0.0
 36
0.0
 17
0.0
 27
1.0
 37
0.0
 76
     0
330
1B
  0
LAYOUT
  5
26
102
{ACAD_REACTORS
330
1A
102
}
330
1A
100
AcDbPlotSettings
  1

  2
none_device
  4

  6

 40
0.0
 41
0.0
 42
0.0
 43
0.0
 44
0.0
 45
0.0
 46
0.0
 47
0.0
 48
0.0
 49
0.0
140
0.0
141
0.0
142
1.0
143
1.0
 70
   688
 72
     0
 73
     0
 74
     5
  7

 75
    16
147
1.0
148
0.0
149
0.0
100
AcDbLayout
  1
Layout2
 70
     1
 71
     2
 10
0.0
 20
0.0
 11
0.0
 21
0.0
 12
0.0
 22
0.0
 32
0.0
 14
0.0
 24
0.0
 34
0.0
 15
0.0
 25
0.0
 35
0.0
146
0.0
 13
0.0
 23
0.0
 33
0.0
 16
1.0
 26
0.0
 36
0.0
 17
0.0
 27
1.0
 37
0.0
 76
     0
330
23
  0
LAYOUT
  5
22
102
{ACAD_REACTORS
330
1A
102
}
330
1A
100
AcDbPlotSettings
  1

  2
none_device
  4

  6

 40
0.0
 41
0.0
 42
0.0
 43
0.0
 44
0.0
 45
0.0
 46
0.0
 47
0.0
 48
0.0
 49
0.0
140
0.0
141
0.0
142
1.0
143
1.0
 70
  1712
 72
     0
 73
     0
 74
     0
  7

 75
     0
147
1.0
148
0.0
149
0.0
100
AcDbLayout
  1
Model
 70
     1
 71
     0
 10
0.0
 20
0.0
 11
12.0
 21
9.0
 12
0.0
 22
0.0
 32
0.0
 14
-55.5426030577466
 24
-75.3021266456979
 34
0.0
 15
354.4573969422535
 25
210.6978733543021
 35
0.0
146
0.0
 13
0.0
 23
0.0
 33
0.0
 16
1.0
 26
0.0
 36
0.0
 17
0.0
 27
1.0
 37
0.0
 76
     0
330
1F
331
29
  0
MLINESTYLE
  5
18
102
{ACAD_REACTORS
330
17
102
}
330
17
100
AcDbMlineStyle
  2
Standard
 70
     0
  3

 62
   256
 51
90.0
 52
90.0
 71
     2
 49
0.5
 62
   256
  6
BYLAYER
 49
-0.5
 62
   256
  6
BYLAYER
  0
ACDBPLACEHOLDER
  5
F
102
{ACAD_REACTORS
330
E
102
}
330
E
  0
VISUALSTYLE
  5
2F
102
{ACAD_REACTORS
330
2A
102
}
330
2A
100
AcDbVisualStyle
  2
2dWireframe
 70
     4
 71
     0
 72
     2
 73
     0
 90
        0
 40
-0.6
 41
-30.0
 62
     5
 63
     7
 74
     1
 91
        4
 64
     7
 65
   257
 75
     1
175
     1
 42
1.0
 92
        0
 66
   257
 43
1.0
 76
     1
 77
     6
 78
     2
 67
     7
 79
     5
170
     0
171
     0
290
     0
174
     0
 93
        1
 44
0.0
173
     0
291
     0
 45
0.0
1001
ACAD
1000
AcDbSavedByObjectVersion
1070
     0
  0
VISUALSTYLE
  5
31
102
{ACAD_REACTORS
330
2A
102
}
330
2A
100
AcDbVisualStyle
  2
3D Hidden
 70
     6
 71
     1
 72
     2
 73
     2
 90
        0
 40
-0.6
 41
-30.0
 62
     5
 63
     7
 74
     2
 91
        2
 64
     7
 65
   257
 75
     2
175
     1
 42
40.0
 92
        0
 66
   257
 43
1.0
 76
     1
 77
     6
 78
     2
 67
     7
 79
     3
170
     0
171
     0
290
     0
174
     0
 93
        1
 44
0.0
173
     0
291
     0
 45
0.0
1001
ACAD
1000
AcDbSavedByObjectVersion
1070
     0
  0
VISUALSTYLE
  5
30
102
{ACAD_REACTORS
330
2A
102
}
330
2A
100
AcDbVisualStyle
  2
3dWireframe
 70
     5
 71
     0
 72
     2
 73
     0
 90
        0
 40
-0.6
 41
-30.0
 62
     5
 63
     7
 74
     1
 91
        4
 64
     7
 65
   257
 75
     1
175
     1
 42
1.0
 92
        0
 66
   257
 43
1.0
 76
     1
 77
     6
 78
     2
 67
     7
 79
     5
170
     0
171
     0
290
     0
174
     0
 93
        1
 44
0.0
173
     0
291
     0
 45
0.0
1001
ACAD
1000
AcDbSavedByObjectVersion
1070
     0
  0
VISUALSTYLE
  5
32
102
{ACAD_REACTORS
330
2A
102
}
330
2A
100
AcDbVisualStyle
  2
Basic
 70
     7
 71
     1
 72
     0
 73
     1
 90
        0
 40
-0.6
 41
-30.0
 62
     5
 63
     7
 74
     0
 91
        4
 64
     7
 65
   257
 75
     1
175
     1
 42
1.0
 92
        8
 66
     7
 43
1.0
 76
     1
 77
     6
 78
     2
 67
     7
 79
     5
170
     0
171
     0
290
     0
174
     0
 93
        1
 44
0.0
173
     0
291
     1
 45
0.0
1001
ACAD
1000
AcDbSavedByObjectVersion
1070
     0
  0
VISUALSTYLE
  5
36
102
{ACAD_REACTORS
330
2A
102
}
330
2A
100
AcDbVisualStyle
  2
Brighten
 70
    12
 71
     2
 72
     2
 73
     0
 90
        0
 40
-0.6
 41
-30.0
 62
     5
 63
     7
 74
     1
 91
        4
 64
     7
 65
   257
 75
     1
175
     1
 42
1.0
 92
        8
 66
     7
 43
1.0
 76
     1
 77
     6
 78
     2
 67
     7
 79
     5
170
     0
171
     0
290
     0
174
     0
 93
        1
 44
50.0
173
     0
291
     1
 45
0.0
1001
ACAD
1000
AcDbSavedByObjectVersion
1070
     0
  0
VISUALSTYLE
  5
3A
102
{ACAD_REACTORS
330
2A
102
}
330
2A
100
AcDbVisualStyle
  2
ColorChange
 70
    16
 71
     2
 72
     2
 73
     3
 90
        0
 40
-0.6
 41
-30.0
 62
     5
 63
     8
 74
     1
 91
        4
 64
     7
 65
   257
 75
     1
175
     1
 42
1.0
 92
        8
 66
     8
 43
1.0
 76
     1
 77
     6
 78
     2
 67
     7
 79
     5
170
     0
171
     0
290
     0
174
     0
 93
        1
 44
0.0
173
     0
291
     1
 45
0.0
1001
ACAD
1000
AcDbSavedByObjectVersion
1070
     0
  0
VISUALSTYLE
  5
34
102
{ACAD_REACTORS
330
2A
102
}
330
2A
100
AcDbVisualStyle
  2
Conceptual
 70
     9
 71
     3
 72
     2
 73
     0
 90
        0
 40
-0.6
 41
-30.0
 62
     5
 63
     7
 74
     2
 91
        2
 64
     7
 65
   257
 75
     1
175
     1
 42
40.0
 92
        8
 66
     7
 43
1.0
 76
     1
 77
     6
 78
     2
 67
     7
 79
     3
170
     0
171
     0
290
     0
174
     0
 93
        1
 44
0.0
173
     0
291
     0
 45
0.0
1001
ACAD
1000
AcDbSavedByObjectVersion
1070
     0
  0
VISUALSTYLE
  5
35
102
{ACAD_REACTORS
330
2A
102
}
330
2A
100
AcDbVisualStyle
  2
Dim
 70
    11
 71
     2
 72
     2
 73
     0
 90
        0
 40
-0.6
 41
-30.0
 62
     5
 63
     7
 74
     1
 91
        4
 64
     7
 65
   257
 75
     1
175
     1
 42
1.0
 92
        8
 66
     7
 43
1.0
 76
     1
 77
     6
 78
     2
 67
     7
 79
     5
170
     0
171
     0
290
     0
174
     0
 93
        1
 44
-50.0
173
     0
291
     1
 45
0.0
1001
ACAD
1000
AcDbSavedByObjectVersion
1070
     0
  0
VISUALSTYLE
  5
39
102
{ACAD_REACTORS
330
2A
102
}
330
2A
100
AcDbVisualStyle
  2
Facepattern
 70
    15
 71
     2
 72
     2
 73
     0
 90
        0
 40
-0.6
 41
-30.0
 62
     5
 63
     7
 74
     1
 91
        4
 64
     7
 65
   257
 75
     1
175
     1
 42
1.0
 92
        8
 66
     7
 43
1.0
 76
     1
 77
     6
 78
     2
 67
     7
 79
     5
170
     0
171
     0
290
     0
174
     0
 93
        1
 44
0.0
173
     0
291
     1
 45
0.0
1001
ACAD
1000
AcDbSavedByObjectVersion
1070
     0
  0
VISUALSTYLE
  5
2B
102
{ACAD_REACTORS
330
2A
102
}
330
2A
100
AcDbVisualStyle
  2
Flat
 70
     0
 71
     2
 72
     1
 73
     1
 90
        2
 40
-0.6
 41
30.0
 62
     5
 63
     7
 74
     0
 91
        4
 64
     7
 65
   257
 75
     1
175
     1
 42
1.0
 92
        8
 66
     7
 43
1.0
 76
     1
 77
     6
 78
     2
 67
     7
 79
     5
170
     0
171
     0
290
     0
174
     0
 93
       13
 44
0.0
173
     0
291
     1
 45
0.0
1001
ACAD
1000
AcDbSavedByObjectVersion
1070
     0
  0
VISUALSTYLE
  5
2C
102
{ACAD_REACTORS
330
2A
102
}
330
2A
100
AcDbVisualStyle
  2
FlatWithEdges
 70
     1
 71
     2
 72
     1
 73
     1
 90
        2
 40
-0.6
 41
30.0
 62
     5
 63
     7
 74
     1
 91
        4
 64
     7
 65
   257
 75
     1
175
     1
 42
1.0
 92
        0
 66
   257
 43
1.0
 76
     1
 77
     6
 78
     2
 67
     7
 79
     5
170
     0
171
     0
290
     0
174
     0
 93
       13
 44
0.0
173
     0
291
     1
 45
0.0
1001
ACAD
1000
AcDbSavedByObjectVersion
1070
     0
  0
VISUALSTYLE
  5
2D
102
{ACAD_REACTORS
330
2A
102
}
330
2A
100
AcDbVisualStyle
  2
Gouraud
 70
     2
 71
     2
 72
     2
 73
     1
 90
        2
 40
-0.6
 41
30.0
 62
     5
 63
     7
 74
     0
 91
        4
 64
     7
 65
   257
 75
     1
175
     1
 42
1.0
 92
        0
 66
     7
 43
1.0
 76
     1
 77
     6
 78
     2
 67
     7
 79
     5
170
     0
171
     0
290
     0
174
     0
 93
       13
 44
0.0
173
     0
291
     1
 45
0.0
1001
ACAD
1000
AcDbSavedByObjectVersion
1070
     0
  0
VISUALSTYLE
  5
2E
102
{ACAD_REACTORS
330
2A
102
}
330
2A
100
AcDbVisualStyle
  2
GouraudWithEdges
 70
     3
 71
     2
 72
     2
 73
     1
 90
        2
 40
-0.6
 41
30.0
 62
     5
 63
     7
 74
     1
 91
        4
 64
     7
 65
   257
 75
     1
175
     1
 42
1.0
 92
        0
 66
   257
 43
1.0
 76
     1
 77
     6
 78
     2
 67
     7
 79
     5
170
     0
171
     0
290
     0
174
     0
 93
       13
 44
0.0
173
     0
291
     1
 45
0.0
1001
ACAD
1000
AcDbSavedByObjectVersion
1070
     0
  0
VISUALSTYLE
  5
38
102
{ACAD_REACTORS
330
2A
102
}
330
2A
100
AcDbVisualStyle
  2
Linepattern
 70
    14
 71
     2
 72
     2
 73
     0
 90
        0
 40
-0.6
 41
-30.0
 62
     5
 63
     7
 74
     1
 91
        4
 64
     7
 65
   257
 75
     7
175
     7
 42
1.0
 92
        8
 66
     7
 43
1.0
 76
     1
 77
     6
 78
     2
 67
     7
 79
     5
170
     0
171
     0
290
     0
174
     0
 93
        1
 44
0.0
173
     0
291
     1
 45
0.0
1001
ACAD
1000
AcDbSavedByObjectVersion
1070
     0
  0
VISUALSTYLE
  5
33
102
{ACAD_REACTORS
330
2A
102
}
330
2A
100
AcDbVisualStyle
  2
Realistic
 70
     8
 71
     2
 72
     2
 73
     0
 90
        0
 40
-0.6
 41
-30.0
 62
     5
 63
     7
 74
     1
 91
        0
 64
     7
 65
   257
 75
     1
175
     1
 42
1.0
 92
        8
 66
     8
 43
1.0
 76
     1
 77
     6
 78
     2
 67
     7
 79
     5
170
     0
171
     0
290
     0
174
     0
 93
       13
 44
0.0
173
     0
291
     0
 45
0.0
1001
ACAD
1000
AcDbSavedByObjectVersion
1070
     0
  0
VISUALSTYLE
  5
37
102
{ACAD_REACTORS
330
2A
102
}
330
2A
100
AcDbVisualStyle
  2
Thicken
 70
    13
 71
     2
 72
     2
 73
     0
 90
        0
 40
-0.6
 41
-30.0
 62
     5
 63
     7
 74
     1
 91
        4
 64
     7
 65
   257
 75
     1
175
     1
 42
1.0
 92
       12
 66
     7
 43
1.0
 76
     1
 77
     6
 78
     2
 67
     7
 79
     5
170
     0
171
     0
290
     0
174
     0
 93
        1
 44
0.0
173
     0
291
     1
 45
0.0
1001
ACAD
1000
AcDbSavedByObjectVersion
1070
     0
  0
ENDSEC
  0
EOF
