  0
SECTION
  2
HEADER
  9
$ACADVER
  1
AC1015
  9
$ACADMAINTVER
 70
     6
  9
$DWGCODEPAGE
  3
ANSI_1252
  9
$INSBASE
 10
0.0
 20
0.0
 30
0.0
  9
$EXTMIN
 10
-250.5221139115838
 20
-306.1597844212137
 30
0.0
  9
$EXTMAX
 10
333.4778860884162
 20
103.8402155787863
 30
0.0
  9
$LIMMIN
 10
0.0
 20
0.0
  9
$LIMMAX
 10
12.0
 20
9.0
  9
$ORTHOMODE
 70
     0
  9
$REGENMODE
 70
     1
  9
$FILLMODE
 70
     1
  9
$QTEXTMODE
 70
     0
  9
$MIRRTEXT
 70
     1
  9
$LTSCALE
 40
1.0
  9
$ATTMODE
 70
     1
  9
$TEXTSIZE
 40
0.2
  9
$TRACEWID
 40
0.05
  9
$TEXTSTYLE
  7
Standard
  9
$CLAYER
  8
0
  9
$CELTYPE
  6
ByLayer
  9
$CECOLOR
 62
   256
  9
$CELTSCALE
 40
1.0
  9
$DISPSILH
 70
     0
  9
$DIMSCALE
 40
1.0
  9
$DIMASZ
 40
0.18
  9
$DIMEXO
 40
0.0625
  9
$DIMDLI
 40
0.38
  9
$DIMRND
 40
0.0
  9
$DIMDLE
 40
0.0
  9
$DIMEXE
 40
0.18
  9
$DIMTP
 40
0.0
  9
$DIMTM
 40
0.0
  9
$DIMTXT
 40
0.18
  9
$DIMCEN
 40
0.09
  9
$DIMTSZ
 40
0.0
  9
$DIMTOL
 70
     0
  9
$DIMLIM
 70
     0
  9
$DIMTIH
 70
     1
  9
$DIMTOH
 70
     1
  9
$DIMSE1
 70
     0
  9
$DIMSE2
 70
     0
  9
$DIMTAD
 70
     0
  9
$DIMZIN
 70
     0
  9
$DIMBLK
  1

  9
$DIMASO
 70
     1
  9
$DIMSHO
 70
     1
  9
$DIMPOST
  1

  9
$DIMAPOST
  1

  9
$DIMALT
 70
     0
  9
$DIMALTD
 70
     2
  9
$DIMALTF
 40
25.4
  9
$DIMLFAC
 40
1.0
  9
$DIMTOFL
 70
     0
  9
$DIMTVP
 40
0.0
  9
$DIMTIX
 70
     0
  9
$DIMSOXD
 70
     0
  9
$DIMSAH
 70
     0
  9
$DIMBLK1
  1

  9
$DIMBLK2
  1

  9
$DIMSTYLE
  2
Standard
  9
$DIMCLRD
 70
     0
  9
$DIMCLRE
 70
     0
  9
$DIMCLRT
 70
     0
  9
$DIMTFAC
 40
1.0
  9
$DIMGAP
 40
0.09
  9
$DIMJUST
 70
     0
  9
$DIMSD1
 70
     0
  9
$DIMSD2
 70
     0
  9
$DIMTOLJ
 70
     1
  9
$DIMTZIN
 70
     0
  9
$DIMALTZ
 70
     0
  9
$DIMALTTZ
 70
     0
  9
$DIMUPT
 70
     0
  9
$DIMDEC
 70
     4
  9
$DIMTDEC
 70
     4
  9
$DIMALTU
 70
     2
  9
$DIMALTTD
 70
     2
  9
$DIMTXSTY
  7
Standard
  9
$DIMAUNIT
 70
     0
  9
$DIMADEC
 70
     0
  9
$DIMALTRND
 40
0.0
  9
$DIMAZIN
 70
     0
  9
$DIMDSEP
 70
    46
  9
$DIMATFIT
 70
     3
  9
$DIMFRAC
 70
     0
  9
$DIMLDRBLK
  1

  9
$DIMLUNIT
 70
     2
  9
$DIMLWD
 70
    -2
  9
$DIMLWE
 70
    -2
  9
$DIMTMOVE
 70
     0
  9
$LUNITS
 70
     2
  9
$LUPREC
 70
     4
  9
$SKETCHINC
 40
0.1
  9
$FILLETRAD
 40
0.5
  9
$AUNITS
 70
     0
  9
$AUPREC
 70
     0
  9
$MENU
  1
.
  9
$ELEVATION
 40
0.0
  9
$PELEVATION
 40
0.0
  9
$THICKNESS
 40
0.0
  9
$LIMCHECK
 70
     0
  9
$CHAMFERA
 40
0.5
  9
$CHAMFERB
 40
0.5
  9
$CHAMFERC
 40
1.0
  9
$CHAMFERD
 40
0.0
  9
$SKPOLY
 70
     0
  9
$TDCREATE
 40
2454183.178001609
  9
$TDUCREATE
 40
2454183.136334942
  9
$TDUPDATE
 40
2454183.17800162
  9
$TDUUPDATE
 40
2454183.136334954
  9
$TDINDWG
 40
0.0000000116
  9
$TDUSRTIMER
 40
0.0000000116
  9
$USRTIMER
 70
     1
  9
$ANGBASE
 50
0.0
  9
$ANGDIR
 70
     0
  9
$PDMODE
 70
     0
  9
$PDSIZE
 40
0.0
  9
$PLINEWID
 40
0.0
  9
$SPLFRAME
 70
     0
  9
$SPLINETYPE
 70
     6
  9
$SPLINESEGS
 70
     8
  9
$HANDSEED
  5
532
  9
$SURFTAB1
 70
     6
  9
$SURFTAB2
 70
     6
  9
$SURFTYPE
 70
     6
  9
$SURFU
 70
     6
  9
$SURFV
 70
     6
  9
$UCSBASE
  2

  9
$UCSNAME
  2

  9
$UCSORG
 10
0.0
 20
0.0
 30
0.0
  9
$UCSXDIR
 10
1.0
 20
0.0
 30
0.0
  9
$UCSYDIR
 10
0.0
 20
1.0
 30
0.0
  9
$UCSORTHOREF
  2

  9
$UCSORTHOVIEW
 70
     0
  9
$UCSORGTOP
 10
0.0
 20
0.0
 30
0.0
  9
$UCSORGBOTTOM
 10
0.0
 20
0.0
 30
0.0
  9
$UCSORGLEFT
 10
0.0
 20
0.0
 30
0.0
  9
$UCSORGRIGHT
 10
0.0
 20
0.0
 30
0.0
  9
$UCSORGFRONT
 10
0.0
 20
0.0
 30
0.0
  9
$UCSORGBACK
 10
0.0
 20
0.0
 30
0.0
  9
$PUCSBASE
  2

  9
$PUCSNAME
  2

  9
$PUCSORG
 10
0.0
 20
0.0
 30
0.0
  9
$PUCSXDIR
 10
1.0
 20
0.0
 30
0.0
  9
$PUCSYDIR
 10
0.0
 20
1.0
 30
0.0
  9
$PUCSORTHOREF
  2

  9
$PUCSORTHOVIEW
 70
     0
  9
$PUCSORGTOP
 10
0.0
 20
0.0
 30
0.0
  9
$PUCSORGBOTTOM
 10
0.0
 20
0.0
 30
0.0
  9
$PUCSORGLEFT
 10
0.0
 20
0.0
 30
0.0
  9
$PUCSORGRIGHT
 10
0.0
 20
0.0
 30
0.0
  9
$PUCSORGFRONT
 10
0.0
 20
0.0
 30
0.0
  9
$PUCSORGBACK
 10
0.0
 20
0.0
 30
0.0
  9
$USERI1
 70
     0
  9
$USERI2
 70
     0
  9
$USERI3
 70
     0
  9
$USERI4
 70
     0
  9
$USERI5
 70
     0
  9
$USERR1
 40
14.5
  9
$USERR2
 40
0.0
  9
$USERR3
 40
0.0
  9
$USERR4
 40
0.0
  9
$USERR5
 40
0.0
  9
$WORLDVIEW
 70
     1
  9
$SHADEDGE
 70
     3
  9
$SHADEDIF
 70
    70
  9
$TILEMODE
 70
     1
  9
$MAXACTVP
 70
    64
  9
$PINSBASE
 10
0.0
 20
0.0
 30
0.0
  9
$PLIMCHECK
 70
     0
  9
$PEXTMIN
 10
1.00000000000000E+20
 20
1.00000000000000E+20
 30
1.00000000000000E+20
  9
$PEXTMAX
 10
-1.00000000000000E+20
 20
-1.00000000000000E+20
 30
-1.00000000000000E+20
  9
$PLIMMIN
 10
0.0
 20
0.0
  9
$PLIMMAX
 10
12.0
 20
9.0
  9
$UNITMODE
 70
     0
  9
$VISRETAIN
 70
     1
  9
$PLINEGEN
 70
     0
  9
$PSLTSCALE
 70
     1
  9
$TREEDEPTH
 70
  3020
  9
$CMLSTYLE
  2
Standard
  9
$CMLJUST
 70
     0
  9
$CMLSCALE
 40
1.0
  9
$PROXYGRAPHICS
 70
     1
  9
$MEASUREMENT
 70
     1
  9
$CELWEIGHT
370
    -1
  9
$ENDCAPS
280
     0
  9
$JOINSTYLE
280
     0
  9
$LWDISPLAY
290
     0
  9
$INSUNITS
 70
     1
  9
$HYPERLINKBASE
  1

  9
$STYLESHEET
  1

  9
$XEDIT
290
     1
  9
$CEPSNTYPE
380
     0
  9
$PSTYLEMODE
290
     1
  9
$FINGERPRINTGUID
  2
{69C7353F-08C8-402E-9368-BDEC783B7F3A}
  9
$VERSIONGUID
  2
{FAEB1C32-E019-11D5-929B-00C0DF256EC4}
  9
$EXTNAMES
290
     1
  9
$PSVPSCALE
 40
0.0
  9
$OLESTARTUP
290
     0
  0
ENDSEC
  0
SECTION
  2
CLASSES
  0
CLASS
  1
ACDBDICTIONARYWDFLT
  2
AcDbDictionaryWithDefault
  3
ObjectDBX Classes
 90
        0
280
     0
281
     0
  0
CLASS
  1

  2
exOdDbSpline
  3

 90
        0
280
     0
281
     1
  0
CLASS
  1

  2
exOdDbCircle
  3

 90
        0
280
     0
281
     1
  0
CLASS
  1

  2
exOdDbPolyline
  3

 90
        0
280
     0
281
     1
  0
CLASS
  1
ACDBPLACEHOLDER
  2
AcDbPlaceHolder
  3
ObjectDBX Classes
 90
        0
280
     0
281
     0
  0
CLASS
  1
LAYOUT
  2
AcDbLayout
  3
ObjectDBX Classes
 90
        0
280
     0
281
     0
  0
ENDSEC
  0
SECTION
  2
TABLES
  0
TABLE
  2
VPORT
  5
8
330
0
100
AcDbSymbolTable
 70
     1
  0
VPORT
  5
29
330
8
100
AcDbSymbolTableRecord
100
AcDbViewportTableRecord
  2
*Active
 70
     0
 10
0.0
 20
0.0
 11
1.0
 21
1.0
 12
41.4778860884162
 22
-101.1597844212137
 13
0.0
 23
0.0
 14
0.5
 24
0.5
 15
0.5
 25
0.5
 16
0.0
 26
0.0
 36
1.0
 17
0.0
 27
0.0
 37
0.0
 40
451.0000000000001
 41
1.60267857142857
 42
50.0
 43
0.0
 44
0.0
 50
0.0
 51
0.0
 71
     0
 72
   100
 73
     1
 74
     3
 75
     0
 76
     0
 77
     0
 78
     0
281
     0
 65
     1
110
0.0
120
0.0
130
0.0
111
1.0
121
0.0
131
0.0
112
0.0
122
1.0
132
0.0
 79
     0
146
0.0
  0
ENDTAB
  0
TABLE
  2
LTYPE
  5
5
330
0
100
AcDbSymbolTable
 70
     8
  0
LTYPE
  5
14
330
5
100
AcDbSymbolTableRecord
100
AcDbLinetypeTableRecord
  2
ByBlock
 70
     0
  3

 72
    65
 73
     0
 40
0.0
  0
LTYPE
  5
15
330
5
100
AcDbSymbolTableRecord
100
AcDbLinetypeTableRecord
  2
ByLayer
 70
     0
  3

 72
    65
 73
     0
 40
0.0
  0
LTYPE
  5
16
330
5
100
AcDbSymbolTableRecord
100
AcDbLinetypeTableRecord
  2
Continuous
 70
     0
  3
Solid line
 72
    65
 73
     0
 40
0.0
  0
LTYPE
  5
2A
330
5
100
AcDbSymbolTableRecord
100
AcDbLinetypeTableRecord
  2
DASHED
 70
     0
  3
Dashed
 72
    65
 73
     2
 40
15.0
 49
7.0
 74
     0
 49
-8.0
 74
     0
  0
LTYPE
  5
2B
330
5
100
AcDbSymbolTableRecord
100
AcDbLinetypeTableRecord
  2
DOTTED
 70
     0
  3
Dotted
 72
    65
 73
     2
 40
1.0
 49
0.0
 74
     0
 49
-1.0
 74
     0
  0
LTYPE
  5
2C
330
5
100
AcDbSymbolTableRecord
100
AcDbLinetypeTableRecord
  2
DOT_CENTER
 70
     0
  3
Dot_Center
 72
    65
 73
     4
 40
14.0
 49
12.0
 74
     0
 49
-1.0
 74
     0
 49
0.0
 74
     0
 49
-1.0
 74
     0
  0
LTYPE
  5
2D
330
5
100
AcDbSymbolTableRecord
100
AcDbLinetypeTableRecord
  2
LONG_DASHED
 70
     0
  3
Long_Dashed
 72
    65
 73
     2
 40
15.0
 49
10.0
 74
     0
 49
-5.0
 74
     0
  0
LTYPE
  5
2E
330
5
100
AcDbSymbolTableRecord
100
AcDbLinetypeTableRecord
  2
DASH_CENTER
 70
     0
  3
Dash_Center
 72
    65
 73
     4
 40
14.0
 49
11.0
 74
     0
 49
-1.0
 74
     0
 49
1.0
 74
     0
 49
-1.0
 74
     0
  0
LTYPE
  5
2F
330
5
100
AcDbSymbolTableRecord
100
AcDbLinetypeTableRecord
  2
PHANTOM
 70
     0
  3
Phantom
 72
    65
 73
     6
 40
13.0
 49
10.0
 74
     0
 49
-1.0
 74
     0
 49
0.0
 74
     0
 49
-1.0
 74
     0
 49
0.0
 74
     0
 49
-1.0
 74
     0
  0
LTYPE
  5
30
330
5
100
AcDbSymbolTableRecord
100
AcDbLinetypeTableRecord
  2
CENTER_DASH_DASH
 70
     0
  3
Center_Dash_Dash
 72
    65
 73
     6
 40
14.0
 49
9.0
 74
     0
 49
-1.0
 74
     0
 49
1.0
 74
     0
 49
-1.0
 74
     0
 49
1.0
 74
     0
 49
-1.0
 74
     0
  0
ENDTAB
  0
TABLE
  2
LAYER
  5
2
330
0
100
AcDbSymbolTable
 70
     3
  0
LAYER
  5
10
330
2
100
AcDbSymbolTableRecord
100
AcDbLayerTableRecord
  2
0
 70
     0
 62
     7
  6
Continuous
370
    -3
390
F
  0
LAYER
  5
31
330
2
100
AcDbSymbolTableRecord
100
AcDbLayerTableRecord
  2
1
 70
     0
 62
     7
  6
Continuous
370
    -3
390
F
  0
LAYER
  5
32
330
2
100
AcDbSymbolTableRecord
100
AcDbLayerTableRecord
  2
EBENE_1
 70
     0
 62
     7
  6
Continuous
370
    -3
390
F
  0
ENDTAB
  0
TABLE
  2
STYLE
  5
3
330
0
100
AcDbSymbolTable
 70
     7
  0
STYLE
  5
11
330
3
100
AcDbSymbolTableRecord
100
AcDbTextStyleTableRecord
  2
Standard
 70
     0
 40
0.0
 41
1.0
 50
0.0
 71
     0
 42
0.2
  3
txt
  4

  0
STYLE
  5
12D
330
3
100
AcDbSymbolTableRecord
100
AcDbTextStyleTableRecord
  2
CONVERTER_11
 70
     0
 40
0.0
 41
0.99
 50
0.0
 71
     0
 42
0.2
  3
txt.shx
  4

  0
STYLE
  5
131
330
3
100
AcDbSymbolTableRecord
100
AcDbTextStyleTableRecord
  2
CONVERTER_12
 70
     0
 40
0.0
 41
0.81
 50
0.0
 71
     0
 42
0.2
  3
txt.shx
  4

  0
STYLE
  5
137
330
3
100
AcDbSymbolTableRecord
100
AcDbTextStyleTableRecord
  2
CONVERTER_13
 70
     0
 40
0.0
 41
0.9
 50
0.0
 71
     0
 42
0.2
  3
txt.shx
  4

  0
STYLE
  5
143
330
3
100
AcDbSymbolTableRecord
100
AcDbTextStyleTableRecord
  2
CONVERTER_14
 70
     0
 40
0.0
 41
0.72
 50
0.0
 71
     0
 42
0.2
  3
txt.shx
  4

  0
STYLE
  5
149
330
3
100
AcDbSymbolTableRecord
100
AcDbTextStyleTableRecord
  2
CONVERTER_15
 70
     0
 40
0.0
 41
0.54
 50
0.0
 71
     0
 42
0.2
  3
txt.shx
  4

  0
STYLE
  5
152
330
3
100
AcDbSymbolTableRecord
100
AcDbTextStyleTableRecord
  2
CONVERTER_16
 70
     0
 40
0.0
 41
0.765
 50
0.0
 71
     0
 42
0.2
  3
txt.shx
  4

  0
ENDTAB
  0
TABLE
  2
VIEW
  5
6
330
0
100
AcDbSymbolTable
 70
     0
  0
ENDTAB
  0
TABLE
  2
UCS
  5
7
330
0
100
AcDbSymbolTable
 70
     0
  0
ENDTAB
  0
TABLE
  2
APPID
  5
9
330
0
100
AcDbSymbolTable
 70
     1
  0
APPID
  5
12
330
9
100
AcDbSymbolTableRecord
100
AcDbRegAppTableRecord
  2
ACAD
 70
     0
  0
ENDTAB
  0
TABLE
  2
DIMSTYLE
  5
A
330
0
100
AcDbSymbolTable
 70
    13
100
AcDbDimStyleTable
  0
DIMSTYLE
105
27
330
A
100
AcDbSymbolTableRecord
100
AcDbDimStyleTableRecord
  2
Standard
 70
     0
340
11
  0
DIMSTYLE
105
38D
102
{ACAD_REACTORS
330
38E
102
}
330
A
100
AcDbSymbolTableRecord
100
AcDbDimStyleTableRecord
  2
ME10_DIM_10
 70
     0
 41
3.5
 42
0.0
 44
2.0
 73
     0
 74
     0
 77
     1
 78
     8
140
3.5
147
2.0
172
     1
173
     1
176
     3
177
     3
178
     4
271
     2
340
137
  0
DIMSTYLE
105
398
102
{ACAD_REACTORS
330
399
102
}
330
A
100
AcDbSymbolTableRecord
100
AcDbDimStyleTableRecord
  2
ME10_DIM_11
 70
     0
 41
3.5
 42
0.0
 44
2.0
 73
     0
 74
     0
 77
     1
 78
     8
140
3.5
147
2.0
172
     1
173
     1
176
     3
177
     3
178
     4
271
     2
340
137
  0
DIMSTYLE
105
3A3
102
{ACAD_REACTORS
330
3A4
102
}
330
A
100
AcDbSymbolTableRecord
100
AcDbDimStyleTableRecord
  2
ME10_DIM_12
 70
     0
 41
3.5
 42
0.0
 44
2.0
 73
     0
 74
     0
 77
     1
 78
     8
140
3.5
147
2.0
172
     1
173
     1
176
     3
177
     3
178
     4
271
     2
340
137
  0
DIMSTYLE
105
3AE
102
{ACAD_REACTORS
330
3AF
102
}
330
A
100
AcDbSymbolTableRecord
100
AcDbDimStyleTableRecord
  2
ME10_DIM_13
 70
     0
 41
3.5
 42
0.0
 44
2.0
 73
     0
 74
     0
 77
     1
 78
     8
140
3.5
147
2.0
172
     1
173
     1
176
     3
177
     3
178
     4
271
     2
340
137
  0
DIMSTYLE
105
3B9
102
{ACAD_REACTORS
330
3BA
102
}
330
A
100
AcDbSymbolTableRecord
100
AcDbDimStyleTableRecord
  2
ME10_DIM_14
 70
     0
 41
3.5
 42
0.0
 44
2.0
 73
     0
 74
     0
 77
     1
 78
     8
140
3.5
147
2.0
172
     1
173
     1
176
     3
177
     3
178
     4
271
     2
340
137
  0
DIMSTYLE
105
3C4
102
{ACAD_REACTORS
330
3C5
102
}
330
A
100
AcDbSymbolTableRecord
100
AcDbDimStyleTableRecord
  2
ME10_DIM_15
 70
     0
 41
3.5
 42
0.0
 44
2.0
 73
     0
 74
     0
 77
     1
 78
     8
140
3.5
147
2.0
172
     1
173
     1
176
     3
177
     3
178
     4
271
     2
340
137
  0
DIMSTYLE
105
3CF
102
{ACAD_REACTORS
330
3D0
102
}
330
A
100
AcDbSymbolTableRecord
100
AcDbDimStyleTableRecord
  2
ME10_DIM_16
 70
     0
 41
3.5
 42
0.0
 44
2.0
 73
     0
 74
     0
 77
     1
 78
     8
140
3.5
147
2.0
172
     1
173
     1
176
     3
177
     3
178
     4
271
     2
340
137
  0
DIMSTYLE
105
3DA
102
{ACAD_REACTORS
330
3DB
102
}
330
A
100
AcDbSymbolTableRecord
100
AcDbDimStyleTableRecord
  2
ME10_DIM_17
 70
     0
 41
3.5
 42
0.0
 44
2.0
 73
     0
 74
     0
 77
     1
 78
     8
140
3.5
147
2.0
172
     1
173
     1
176
     3
177
     3
178
     4
271
     2
340
137
  0
DIMSTYLE
105
3E5
102
{ACAD_REACTORS
330
3E6
102
}
330
A
100
AcDbSymbolTableRecord
100
AcDbDimStyleTableRecord
  2
ME10_DIM_18
 70
     0
 41
3.5
 42
0.0
 44
2.0
 73
     0
 74
     0
 77
     1
 78
     8
140
3.5
147
2.0
172
     1
173
     1
176
     3
177
     3
178
     4
271
     2
340
137
  0
DIMSTYLE
105
3F0
102
{ACAD_REACTORS
330
3F1
102
}
330
A
100
AcDbSymbolTableRecord
100
AcDbDimStyleTableRecord
  2
ME10_DIM_19
 70
     0
 41
3.5
 42
0.0
 44
2.0
 73
     0
 74
     0
 77
     1
 78
     8
140
3.5
147
2.0
172
     1
173
     1
176
     3
177
     3
178
     4
271
     2
340
137
  0
DIMSTYLE
105
3FB
102
{ACAD_REACTORS
330
3FC
102
}
330
A
100
AcDbSymbolTableRecord
100
AcDbDimStyleTableRecord
  2
ME10_DIM_20
 70
     0
 41
3.5
 42
0.0
 44
2.0
 73
     0
 74
     0
 77
     1
 78
     8
140
3.5
147
2.0
172
     1
173
     1
176
     3
177
     3
178
     4
271
     2
340
137
  0
DIMSTYLE
105
406
102
{ACAD_REACTORS
330
407
102
}
330
A
100
AcDbSymbolTableRecord
100
AcDbDimStyleTableRecord
  2
ME10_DIM_21
 70
     0
 41
3.5
 42
0.0
 44
2.0
 73
     0
 74
     0
 77
     1
 78
     8
140
3.5
147
2.0
172
     1
173
     1
176
     3
177
     3
178
     4
271
     2
340
137
  0
ENDTAB
  0
TABLE
  2
BLOCK_RECORD
  5
1
330
0
100
AcDbSymbolTable
 70
    17
  0
BLOCK_RECORD
  5
1F
330
1
100
AcDbSymbolTableRecord
100
AcDbBlockTableRecord
  2
*Model_Space
340
22
  0
BLOCK_RECORD
  5
1B
330
1
100
AcDbSymbolTableRecord
100
AcDbBlockTableRecord
  2
*Paper_Space
340
1E
  0
BLOCK_RECORD
  5
23
330
1
100
AcDbSymbolTableRecord
100
AcDbBlockTableRecord
  2
*Paper_Space0
340
26
  0
BLOCK_RECORD
  5
33
330
1
100
AcDbSymbolTableRecord
100
AcDbBlockTableRecord
  2
a2gr
340
0
102
{BLKREFS
331
37
102
}
  0
BLOCK_RECORD
  5
36
330
1
100
AcDbSymbolTableRecord
100
AcDbBlockTableRecord
  2
rahmen
340
0
102
{BLKREFS
331
3B
102
}
  0
BLOCK_RECORD
  5
3A
330
1
100
AcDbSymbolTableRecord
100
AcDbBlockTableRecord
  2
Tuerschiene_TS550
340
0
102
{BLKREFS
331
41
102
}
  0
BLOCK_RECORD
  5
3E
330
1
100
AcDbSymbolTableRecord
100
AcDbBlockTableRecord
  2
Deckplatte
340
0
102
{BLKREFS
331
42
102
}
  0
BLOCK_RECORD
  5
384
330
1
100
AcDbSymbolTableRecord
100
AcDbBlockTableRecord
  2
*D5
340
0
  0
BLOCK_RECORD
  5
38F
330
1
100
AcDbSymbolTableRecord
100
AcDbBlockTableRecord
  2
*D6
340
0
  0
BLOCK_RECORD
  5
39A
330
1
100
AcDbSymbolTableRecord
100
AcDbBlockTableRecord
  2
*D7
340
0
  0
BLOCK_RECORD
  5
3A5
330
1
100
AcDbSymbolTableRecord
100
AcDbBlockTableRecord
  2
*D8
340
0
  0
BLOCK_RECORD
  5
3B0
330
1
100
AcDbSymbolTableRecord
100
AcDbBlockTableRecord
  2
*D9
340
0
  0
BLOCK_RECORD
  5
3BB
330
1
100
AcDbSymbolTableRecord
100
AcDbBlockTableRecord
  2
*D10
340
0
  0
BLOCK_RECORD
  5
3C6
330
1
100
AcDbSymbolTableRecord
100
AcDbBlockTableRecord
  2
*D11
340
0
  0
BLOCK_RECORD
  5
3D1
330
1
100
AcDbSymbolTableRecord
100
AcDbBlockTableRecord
  2
*D12
340
0
  0
BLOCK_RECORD
  5
3DC
330
1
100
AcDbSymbolTableRecord
100
AcDbBlockTableRecord
  2
*D13
340
0
  0
BLOCK_RECORD
  5
3E7
330
1
100
AcDbSymbolTableRecord
100
AcDbBlockTableRecord
  2
*D14
340
0
  0
BLOCK_RECORD
  5
3F2
330
1
100
AcDbSymbolTableRecord
100
AcDbBlockTableRecord
  2
*D15
340
0
  0
BLOCK_RECORD
  5
3FD
330
1
100
AcDbSymbolTableRecord
100
AcDbBlockTableRecord
  2
*D16
340
0
  0
ENDTAB
  0
ENDSEC
  0
SECTION
  2
BLOCKS
  0
BLOCK
  5
20
330
1F
100
AcDbEntity
  8
0
100
AcDbBlockBegin
  2
*Model_Space
 70
     0
 71
     0
 10
0.0
 20
0.0
 30
0.0
  3
*Model_Space
  1

  0
ENDBLK
  5
21
330
1F
100
AcDbEntity
  8
0
100
AcDbBlockEnd
  0
BLOCK
  5
1C
330
1B
100
AcDbEntity
 67
     1
  8
0
100
AcDbBlockBegin
  2
*Paper_Space
 70
     0
 71
     0
 10
0.0
 20
0.0
 30
0.0
  3
*Paper_Space
  1

  0
ENDBLK
  5
1D
330
1B
100
AcDbEntity
 67
     1
  8
0
100
AcDbBlockEnd
  0
BLOCK
  5
24
330
23
100
AcDbEntity
  8
0
100
AcDbBlockBegin
  2
*Paper_Space0
 70
     0
 71
     0
 10
0.0
 20
0.0
 30
0.0
  3
*Paper_Space0
  1

  0
ENDBLK
  5
25
330
23
100
AcDbEntity
  8
0
100
AcDbBlockEnd
  0
BLOCK
  5
34
330
33
100
AcDbEntity
  8
0
100
AcDbBlockBegin
  2
a2gr
 70
     0
 71
     0
 10
-257.5221139115838
 20
-354.1597844212137
 30
0.0
  3
a2gr
  1

  0
LINE
  5
43
330
33
100
AcDbEntity
  8
0
  6
Continuous
 62
     1
100
AcDbLine
 10
265.4778860884162
 20
-297.1597844212137
 30
0.0
 11
201.4778860884162
 21
-297.1597844212137
 31
0.0
  0
LINE
  5
44
330
33
100
AcDbEntity
  8
1
  6
Continuous
 62
     1
100
AcDbLine
 10
265.4778860884162
 20
-297.1597844212137
 30
0.0
 11
265.4778860884162
 21
-306.1597844212137
 31
0.0
  0
LINE
  5
45
330
33
100
AcDbEntity
  8
0
  6
Continuous
 62
     4
100
AcDbLine
 10
150.4778860884162
 20
-301.8597814212137
 30
0.0
 11
201.4778860884162
 21
-301.8597814212137
 31
0.0
  0
LINE
  5
46
330
33
100
AcDbEntity
  8
0
  6
Continuous
 62
     3
100
AcDbLine
 10
201.4778860884162
 20
-297.5597934212137
 30
0.0
 11
150.4778860884162
 21
-297.5597934212137
 31
0.0
  0
LINE
  5
47
330
33
100
AcDbEntity
  8
0
  6
Continuous
 62
     3
100
AcDbLine
 10
150.4778860884162
 20
-293.2597904212137
 30
0.0
 11
201.4778860884162
 21
-293.2597904212137
 31
0.0
  0
LINE
  5
48
330
33
100
AcDbEntity
  8
0
  6
Continuous
 62
     3
100
AcDbLine
 10
201.4778860884162
 20
-288.9597874212137
 30
0.0
 11
150.4778860884162
 21
-288.9597874212137
 31
0.0
  0
LINE
  5
49
330
33
100
AcDbEntity
  8
0
  6
Continuous
 62
     3
100
AcDbLine
 10
150.4778860884162
 20
-284.6597844212137
 30
0.0
 11
201.4778860884162
 21
-284.6597844212137
 31
0.0
  0
LINE
  5
4A
330
33
100
AcDbEntity
  8
0
  6
Continuous
 62
     3
100
AcDbLine
 10
201.4778860884162
 20
-280.3597964212137
 30
0.0
 11
150.4778860884162
 21
-280.3597964212137
 31
0.0
  0
LINE
  5
4B
330
33
100
AcDbEntity
  8
0
  6
Continuous
 62
     3
100
AcDbLine
 10
150.4778860884162
 20
-276.0597934212137
 30
0.0
 11
201.4778860884162
 21
-276.0597934212137
 31
0.0
  0
LINE
  5
4C
330
33
100
AcDbEntity
  8
0
  6
Continuous
 62
     3
100
AcDbLine
 10
201.4778860884162
 20
-271.7597904212137
 30
0.0
 11
150.4778860884162
 21
-271.7597904212137
 31
0.0
  0
LINE
  5
4D
330
33
100
AcDbEntity
  8
0
  6
Continuous
 62
     3
100
AcDbLine
 10
150.4778860884162
 20
-267.4597874212137
 30
0.0
 11
201.4778860884162
 21
-267.4597874212137
 31
0.0
  0
LINE
  5
4E
330
33
100
AcDbEntity
  8
0
  6
Continuous
 62
     3
100
AcDbLine
 10
160.4778860884163
 20
-306.1597844212137
 30
0.0
 11
160.4778860884163
 21
-263.1597844212137
 31
0.0
  0
LINE
  5
4F
330
33
100
AcDbEntity
  8
0
  6
Continuous
 62
     3
100
AcDbLine
 10
173.4778860884162
 20
-306.1597844212137
 30
0.0
 11
173.4778860884162
 21
-263.1597844212137
 31
0.0
  0
LINE
  5
50
330
33
100
AcDbEntity
  8
0
  6
Continuous
 62
     3
100
AcDbLine
 10
184.4778860884162
 20
-306.1597844212137
 30
0.0
 11
184.4778860884162
 21
-263.1597844212137
 31
0.0
  0
LINE
  5
51
330
33
100
AcDbEntity
  8
0
  6
Continuous
 62
     1
100
AcDbLine
 10
238.7506133611435
 20
-297.1597844212137
 30
0.0
 11
238.7506133611435
 21
-280.1597821459935
 31
0.0
  0
LINE
  5
52
330
33
100
AcDbEntity
  8
0
  6
Continuous
 62
     3
100
AcDbLine
 10
201.4778860884162
 20
-292.8343383340784
 30
0.0
 11
238.7506133611435
 21
-292.8343383340784
 31
0.0
  0
LINE
  5
53
330
33
100
AcDbEntity
  8
0
  6
Continuous
 62
     3
100
AcDbLine
 10
238.7506133611435
 20
-288.508892246943
 30
0.0
 11
201.4778860884162
 21
-288.508892246943
 31
0.0
  0
LINE
  5
54
330
33
100
AcDbEntity
  8
0
  6
Continuous
 62
     3
100
AcDbLine
 10
201.4778860884162
 20
-284.1834461598076
 30
0.0
 11
238.7506133611435
 21
-284.1834461598076
 31
0.0
  0
LINE
  5
55
330
33
100
AcDbEntity
  8
0
  6
Continuous
 62
     3
100
AcDbLine
 10
212.5665168611434
 20
-297.1597844212137
 30
0.0
 11
212.5665168611434
 21
-280.1597844212137
 31
0.0
  0
LINE
  5
56
330
33
100
AcDbEntity
  8
0
  6
Continuous
 62
     3
100
AcDbLine
 10
226.6369769975071
 20
-297.1597844212137
 30
0.0
 11
226.6369769975071
 21
-280.1597781882873
 31
0.0
  0
LINE
  5
57
330
33
100
AcDbEntity
  8
0
  6
Continuous
 62
     1
100
AcDbLine
 10
283.4778860884162
 20
-297.1597844212137
 30
0.0
 11
265.4778860884162
 21
-297.1597844212137
 31
0.0
  0
LINE
  5
58
330
33
100
AcDbEntity
  8
0
  6
Continuous
 62
     2
100
AcDbLine
 10
333.4778860884162
 20
-263.1597844212137
 30
0.0
 11
333.4778860884162
 21
-306.1597844212137
 31
0.0
  0
LINE
  5
59
330
33
100
AcDbEntity
  8
1
  6
Continuous
 62
     1
100
AcDbLine
 10
289.4778860884162
 20
-263.1597844212137
 30
0.0
 11
333.4778860884162
 21
-263.1597844212137
 31
0.0
  0
LINE
  5
5A
330
33
100
AcDbEntity
  8
1
  6
Continuous
 62
     1
100
AcDbLine
 10
245.4778860884162
 20
-280.1597844212137
 30
0.0
 11
201.4778860884162
 21
-280.1597844212137
 31
0.0
  0
LINE
  5
5B
330
33
100
AcDbEntity
  8
0
  6
Continuous
 62
     1
100
AcDbLine
 10
201.4778860884162
 20
-276.1597844212137
 30
0.0
 11
201.4778860884162
 21
-276.0591955422522
 31
0.0
  0
LINE
  5
5C
330
33
100
AcDbEntity
  8
0
  6
Continuous
 62
     3
100
AcDbLine
 10
201.4778860884162
 20
-271.6597844212137
 30
0.0
 11
245.4778860884162
 21
-271.6597844212137
 31
0.0
  0
LINE
  5
5D
330
33
100
AcDbEntity
  8
0
  6
Continuous
 62
     1
100
AcDbLine
 10
245.4778860884162
 20
-263.1597844212137
 30
0.0
 11
150.4778860884162
 21
-263.1597844212137
 31
0.0
  0
LINE
  5
5E
330
33
100
AcDbEntity
  8
0
  6
Continuous
 62
     1
100
AcDbLine
 10
245.4778860884162
 20
-280.1597844212137
 30
0.0
 11
333.4778860884162
 21
-280.1597844212137
 31
0.0
  0
LINE
  5
5F
330
33
100
AcDbEntity
  8
1
  6
Continuous
 62
     1
100
AcDbLine
 10
245.4778860884162
 20
-263.1597844212137
 30
0.0
 11
245.4778860884162
 21
-280.1597844212137
 31
0.0
  0
LINE
  5
60
330
33
100
AcDbEntity
  8
0
  6
Continuous
 62
     2
100
AcDbLine
 10
150.4778860884162
 20
-246.2597904212137
 30
0.0
 11
333.4778860884162
 21
-246.2597754212137
 31
0.0
  0
LINE
  5
61
330
33
100
AcDbEntity
  8
0
  6
Continuous
 62
     1
100
AcDbLine
 10
333.4778860884162
 20
-293.1597844212137
 30
0.0
 11
283.4778860884162
 21
-293.1597844212137
 31
0.0
  0
LINE
  5
62
330
33
100
AcDbEntity
  8
0
  6
Continuous
 62
     1
100
AcDbLine
 10
201.4778860884162
 20
-263.1597844212137
 30
0.0
 11
201.4778860884162
 21
-306.1597844212137
 31
0.0
  0
LINE
  5
63
330
33
100
AcDbEntity
  8
0
  6
Continuous
 62
     1
100
AcDbLine
 10
283.4778860884162
 20
-306.1597844212137
 30
0.0
 11
283.4778860884162
 21
-280.1597844212137
 31
0.0
  0
LINE
  5
64
330
33
100
AcDbEntity
  8
0
  6
Continuous
 62
     1
100
AcDbLine
 10
234.4778860884162
 20
-306.1597844212137
 30
0.0
 11
234.4778860884162
 21
-297.1597844212137
 31
0.0
  0
LINE
  5
65
330
33
100
AcDbEntity
  8
0
  6
Continuous
 62
     1
100
AcDbLine
 10
289.4778860884162
 20
-263.1597844212137
 30
0.0
 11
245.4778860884162
 21
-263.1597844212137
 31
0.0
  0
LINE
  5
66
330
33
100
AcDbEntity
  8
0
  6
Continuous
 62
     1
100
AcDbLine
 10
245.4778860884162
 20
-263.1597844212137
 30
0.0
 11
245.4778860884162
 21
-246.1597844212137
 31
0.0
  0
LINE
  5
67
330
33
100
AcDbEntity
  8
0
  6
Continuous
 62
     1
100
AcDbLine
 10
201.4778860884162
 20
-263.1597844212137
 30
0.0
 11
201.4778860884162
 21
-246.2597862408858
 31
0.0
  0
LINE
  5
68
330
33
100
AcDbEntity
  8
0
  6
Continuous
 62
     1
100
AcDbLine
 10
289.4778860884162
 20
-246.1597844212137
 30
0.0
 11
289.4778860884162
 21
-263.1597844212137
 31
0.0
  0
LINE
  5
69
330
33
100
AcDbEntity
  8
0
  6
Continuous
 62
     2
100
AcDbLine
 10
333.4778860884162
 20
-306.1597844212137
 30
0.0
 11
150.4778860884162
 21
-306.1597844212137
 31
0.0
  0
LINE
  5
6A
330
33
100
AcDbEntity
  8
1
  6
Continuous
 62
     1
100
AcDbLine
 10
150.4778860884162
 20
-306.1597844212137
 30
0.0
 11
150.4778860884162
 21
-246.2597904212137
 31
0.0
  0
LINE
  5
6B
330
33
100
AcDbEntity
  8
1
  6
Continuous
 62
     2
100
AcDbLine
 10
333.4778860884162
 20
-263.1597844212137
 30
0.0
 11
333.4778860884162
 21
-246.2597754212137
 31
0.0
  0
LINE
  5
6C
330
33
100
AcDbEntity
  8
1
  6
Continuous
 62
     3
100
AcDbLine
 10
252.4622508272399
 20
-283.8541733283324
 30
0.0
 11
252.4622508272399
 21
-283.5551577750257
 31
0.0
  0
LINE
  5
6D
330
33
100
AcDbEntity
  8
EBENE_1
  6
Continuous
 62
     3
100
AcDbLine
 10
253.7866076130464
 20
-285.0672459575659
 30
0.0
 11
253.7866076130464
 21
-284.7645664440918
 31
0.0
  0
LINE
  5
6E
330
33
100
AcDbEntity
  8
EBENE_1
  6
Continuous
 62
     3
100
AcDbLine
 10
253.844313128331
 20
-283.8544646306043
 30
0.0
 11
256.1589219505506
 21
-283.8544646306043
 31
0.0
  0
LINE
  5
6F
330
33
100
AcDbEntity
  8
EBENE_1
  6
Continuous
 62
     3
100
AcDbLine
 10
256.1589219505506
 20
-283.8544646306043
 30
0.0
 11
256.1589219505506
 21
-283.4159661997668
 31
0.0
  0
LINE
  5
70
330
33
100
AcDbEntity
  8
EBENE_1
  6
Continuous
 62
     3
100
AcDbLine
 10
256.1589219505506
 20
-283.4159661997668
 30
0.0
 11
253.0796985181738
 21
-283.4159661997668
 31
0.0
  0
LINE
  5
71
330
33
100
AcDbEntity
  8
EBENE_1
  6
Continuous
 62
     3
100
AcDbLine
 10
252.9420147193857
 20
-283.5536499985548
 30
0.0
 11
252.9420147193857
 21
-285.4520463842652
 31
0.0
  0
LINE
  5
72
330
33
100
AcDbEntity
  8
EBENE_1
  6
Continuous
 62
     3
100
AcDbLine
 10
253.0796985181738
 20
-285.5897301830532
 30
0.0
 11
256.1589219505506
 21
-285.5897301830532
 31
0.0
  0
LINE
  5
73
330
33
100
AcDbEntity
  8
EBENE_1
  6
Continuous
 62
     3
100
AcDbLine
 10
256.1589219505506
 20
-285.5897301830532
 30
0.0
 11
256.1589219505506
 21
-285.1235891835829
 31
0.0
  0
LINE
  5
74
330
33
100
AcDbEntity
  8
EBENE_1
  6
Continuous
 62
     3
100
AcDbLine
 10
256.1589219505506
 20
-285.1235891835829
 30
0.0
 11
253.844313128331
 21
-285.1235891835829
 31
0.0
  0
LINE
  5
75
330
33
100
AcDbEntity
  8
EBENE_1
  6
Continuous
 62
     3
100
AcDbLine
 10
253.844313128331
 20
-284.7082232180748
 30
0.0
 11
256.1589219505506
 21
-284.7082232180748
 31
0.0
  0
LINE
  5
76
330
33
100
AcDbEntity
  8
EBENE_1
  6
Continuous
 62
     3
100
AcDbLine
 10
256.1589219505506
 20
-284.7082232180748
 30
0.0
 11
256.1589219505506
 21
-284.2652014578246
 31
0.0
  0
LINE
  5
77
330
33
100
AcDbEntity
  8
EBENE_1
  6
Continuous
 62
     3
100
AcDbLine
 10
256.1589219505506
 20
-284.2652014578246
 30
0.0
 11
253.844313128331
 21
-284.2652014578246
 31
0.0
  0
LINE
  5
78
330
33
100
AcDbEntity
  8
EBENE_1
  6
Continuous
 62
     3
100
AcDbLine
 10
253.7866076130464
 20
-284.2088582318076
 30
0.0
 11
253.7866076130464
 21
-283.9108078566214
 31
0.0
  0
LINE
  5
79
330
33
100
AcDbEntity
  8
EBENE_1
  6
Continuous
 62
     3
100
AcDbLine
 10
246.3741007339135
 20
-285.0672459575659
 30
0.0
 11
246.3741007339135
 21
-284.7645664440918
 31
0.0
  0
LINE
  5
7A
330
33
100
AcDbEntity
  8
1
  6
Continuous
 62
     3
100
AcDbLine
 10
242.4346511465728
 20
-285.5943725474504
 30
0.0
 11
244.4116899787379
 21
-285.5943725474504
 31
0.0
  0
LINE
  5
7B
330
33
100
AcDbEntity
  8
1
  6
Continuous
 62
     3
100
AcDbLine
 10
241.8262501144641
 20
-283.8854401788043
 30
0.0
 11
241.8262501144641
 21
-285.1248985684129
 31
0.0
  0
LINE
  5
7C
330
33
100
AcDbEntity
  8
1
  6
Continuous
 62
     3
100
AcDbLine
 10
242.6703800942961
 20
-283.9936958841915
 30
0.0
 11
242.6703800942961
 21
-284.9770292953306
 31
0.0
  0
LINE
  5
7D
330
33
100
AcDbEntity
  8
1
  6
Continuous
 62
     3
100
AcDbLine
 10
242.8125872224966
 20
-285.1150172946347
 30
0.0
 11
244.0909303737227
 21
-285.1150172946347
 31
0.0
  0
LINE
  5
7E
330
33
100
AcDbEntity
  8
1
  6
Continuous
 62
     3
100
AcDbLine
 10
242.8125872224966
 20
-283.8557078848873
 30
0.0
 11
244.0879148207809
 21
-283.8557078848873
 31
0.0
  0
LINE
  5
7F
330
33
100
AcDbEntity
  8
1
  6
Continuous
 62
     3
100
AcDbLine
 10
256.849933261932
 20
-285.954387245146
 30
0.0
 11
241.1352520291921
 21
-285.954387245146
 31
0.0
  0
LINE
  5
80
330
33
100
AcDbEntity
  8
EBENE_1
  6
Continuous
 62
     3
100
AcDbLine
 10
240.7495257748353
 20
-282.6313537122063
 30
0.0
 11
257.2356595162888
 21
-282.6313537122063
 31
0.0
  0
LINE
  5
81
330
33
100
AcDbEntity
  8
EBENE_1
  6
Continuous
 62
     3
100
AcDbLine
 10
257.8448937932893
 20
-283.1021370760739
 30
0.0
 11
257.8448937932893
 21
-285.9082016711433
 31
0.0
  0
LINE
  5
82
330
33
100
AcDbEntity
  8
EBENE_1
  6
Continuous
 62
     3
100
AcDbLine
 10
257.2356595162888
 20
-286.3789850350108
 30
0.0
 11
240.7495257748353
 21
-286.3789850350108
 31
0.0
  0
LINE
  5
83
330
33
100
AcDbEntity
  8
EBENE_1
  6
Continuous
 62
     3
100
AcDbLine
 10
240.1402914978348
 20
-285.9082016711433
 30
0.0
 11
240.1402914978348
 21
-283.1021370760739
 31
0.0
  0
LINE
  5
84
330
33
100
AcDbEntity
  8
EBENE_1
  6
Continuous
 62
     3
100
AcDbLine
 10
256.9864531630934
 20
-285.8178673439846
 30
0.0
 11
256.9864531630934
 21
-283.1924714032326
 31
0.0
  0
LINE
  5
85
330
33
100
AcDbEntity
  8
EBENE_1
  6
Continuous
 62
     3
100
AcDbLine
 10
256.849933261932
 20
-283.0559515020712
 30
0.0
 11
241.1352520291921
 21
-283.0559515020712
 31
0.0
  0
LINE
  5
86
330
33
100
AcDbEntity
  8
EBENE_1
  6
Continuous
 62
     3
100
AcDbLine
 10
240.9987321280307
 20
-283.1924714032326
 30
0.0
 11
240.9987321280307
 21
-285.8178673439846
 31
0.0
  0
LINE
  5
87
330
33
100
AcDbEntity
  8
EBENE_1
  6
Continuous
 62
     3
100
AcDbLine
 10
243.4139519644079
 20
-284.7082232180748
 30
0.0
 11
244.1675889037683
 21
-284.7082232180748
 31
0.0
  0
LINE
  5
88
330
33
100
AcDbEntity
  8
EBENE_1
  6
Continuous
 62
     3
100
AcDbLine
 10
244.2262202467104
 20
-283.9931139353781
 30
0.0
 11
244.2262202467104
 21
-284.0731583494286
 31
0.0
  0
LINE
  5
89
330
33
100
AcDbEntity
  8
EBENE_1
  6
Continuous
 62
     3
100
AcDbLine
 10
244.2262202467104
 20
-284.0731583494286
 30
0.0
 11
245.0200910108465
 21
-284.0731583494286
 31
0.0
  0
LINE
  5
8A
330
33
100
AcDbEntity
  8
EBENE_1
  6
Continuous
 62
     3
100
AcDbLine
 10
245.0200910108465
 20
-284.0731583494286
 30
0.0
 11
245.0200910108465
 21
-283.8854401788043
 31
0.0
  0
LINE
  5
8B
330
33
100
AcDbEntity
  8
EBENE_1
  6
Continuous
 62
     3
100
AcDbLine
 10
244.4116899787379
 20
-283.4159661997668
 30
0.0
 11
242.4346511465728
 21
-283.4159661997668
 31
0.0
  0
LINE
  5
8C
330
33
100
AcDbEntity
  8
EBENE_1
  6
Continuous
 62
     3
100
AcDbLine
 10
245.0200910108465
 20
-285.1248985684129
 30
0.0
 11
245.0200910108465
 21
-284.2652014578246
 31
0.0
  0
LINE
  5
8D
330
33
100
AcDbEntity
  8
EBENE_1
  6
Continuous
 62
     3
100
AcDbLine
 10
245.0200910108465
 20
-284.2652014578246
 30
0.0
 11
243.4139519644079
 21
-284.2652014578246
 31
0.0
  0
LINE
  5
8E
330
33
100
AcDbEntity
  8
EBENE_1
  6
Continuous
 62
     3
100
AcDbLine
 10
243.4139519644079
 20
-284.2652014578246
 30
0.0
 11
243.4139519644079
 21
-284.7082232180748
 31
0.0
  0
LINE
  5
8F
330
33
100
AcDbEntity
  8
EBENE_1
  6
Continuous
 62
     3
100
AcDbLine
 10
246.4318062491981
 20
-283.8544646306043
 30
0.0
 11
248.7464150714178
 21
-283.8544646306043
 31
0.0
  0
LINE
  5
90
330
33
100
AcDbEntity
  8
EBENE_1
  6
Continuous
 62
     3
100
AcDbLine
 10
248.7464150714178
 20
-283.8544646306043
 30
0.0
 11
248.7464150714178
 21
-283.4159661997668
 31
0.0
  0
LINE
  5
91
330
33
100
AcDbEntity
  8
EBENE_1
  6
Continuous
 62
     3
100
AcDbLine
 10
248.7464150714178
 20
-283.4159661997668
 30
0.0
 11
245.667191639041
 21
-283.4159661997668
 31
0.0
  0
LINE
  5
92
330
33
100
AcDbEntity
  8
EBENE_1
  6
Continuous
 62
     3
100
AcDbLine
 10
245.5295078402529
 20
-283.5536499985548
 30
0.0
 11
245.5295078402529
 21
-285.4520463842652
 31
0.0
  0
LINE
  5
93
330
33
100
AcDbEntity
  8
EBENE_1
  6
Continuous
 62
     3
100
AcDbLine
 10
245.667191639041
 20
-285.5897301830532
 30
0.0
 11
248.7464150714178
 21
-285.5897301830532
 31
0.0
  0
LINE
  5
94
330
33
100
AcDbEntity
  8
EBENE_1
  6
Continuous
 62
     3
100
AcDbLine
 10
248.7464150714178
 20
-285.5897301830532
 30
0.0
 11
248.7464150714178
 21
-285.1235891835829
 31
0.0
  0
LINE
  5
95
330
33
100
AcDbEntity
  8
EBENE_1
  6
Continuous
 62
     3
100
AcDbLine
 10
248.7464150714178
 20
-285.1235891835829
 30
0.0
 11
246.4318062491981
 21
-285.1235891835829
 31
0.0
  0
LINE
  5
96
330
33
100
AcDbEntity
  8
EBENE_1
  6
Continuous
 62
     3
100
AcDbLine
 10
246.4318062491981
 20
-284.7082232180748
 30
0.0
 11
248.7464150714178
 21
-284.7082232180748
 31
0.0
  0
LINE
  5
97
330
33
100
AcDbEntity
  8
EBENE_1
  6
Continuous
 62
     3
100
AcDbLine
 10
248.7464150714178
 20
-284.7082232180748
 30
0.0
 11
248.7464150714178
 21
-284.2652014578246
 31
0.0
  0
LINE
  5
98
330
33
100
AcDbEntity
  8
EBENE_1
  6
Continuous
 62
     3
100
AcDbLine
 10
248.7464150714178
 20
-284.2652014578246
 30
0.0
 11
246.4318062491981
 21
-284.2652014578246
 31
0.0
  0
LINE
  5
99
330
33
100
AcDbEntity
  8
EBENE_1
  6
Continuous
 62
     3
100
AcDbLine
 10
246.3741007339135
 20
-284.2088582318076
 30
0.0
 11
246.3741007339135
 21
-283.9108078566214
 31
0.0
  0
LINE
  5
9A
330
33
100
AcDbEntity
  8
EBENE_1
  6
Continuous
 62
     3
100
AcDbLine
 10
249.2679734692475
 20
-283.4736584889419
 30
0.0
 11
249.2679734692475
 21
-283.7967723414292
 31
0.0
  0
LINE
  5
9B
330
33
100
AcDbEntity
  8
EBENE_1
  6
Continuous
 62
     3
100
AcDbLine
 10
249.3256657584228
 20
-283.8544646306043
 30
0.0
 11
251.2064317403113
 21
-283.8544646306043
 31
0.0
  0
LINE
  5
9C
330
33
100
AcDbEntity
  8
EBENE_1
  6
Continuous
 62
     3
100
AcDbLine
 10
251.2064317403113
 20
-283.8544646306043
 30
0.0
 11
249.2679734692475
 21
-285.1235891835829
 31
0.0
  0
LINE
  5
9D
330
33
100
AcDbEntity
  8
EBENE_1
  6
Continuous
 62
     3
100
AcDbLine
 10
249.2679734692475
 20
-285.1235891835829
 30
0.0
 11
249.2679734692475
 21
-285.5328182343323
 31
0.0
  0
LINE
  5
9E
330
33
100
AcDbEntity
  8
EBENE_1
  6
Continuous
 62
     3
100
AcDbLine
 10
249.3256657584228
 20
-285.5903650363041
 30
0.0
 11
252.4045585380646
 21
-285.5903650363041
 31
0.0
  0
LINE
  5
9F
330
33
100
AcDbEntity
  8
EBENE_1
  6
Continuous
 62
     3
100
AcDbLine
 10
252.4622508272399
 20
-285.5328182343323
 30
0.0
 11
252.4622508272399
 21
-285.1811359855547
 31
0.0
  0
LINE
  5
A0
330
33
100
AcDbEntity
  8
EBENE_1
  6
Continuous
 62
     3
100
AcDbLine
 10
252.4045585380646
 20
-285.1235891835829
 30
0.0
 11
250.5602701658838
 21
-285.1235891835829
 31
0.0
  0
LINE
  5
A1
330
33
100
AcDbEntity
  8
EBENE_1
  6
Continuous
 62
     3
100
AcDbLine
 10
250.5602701658838
 20
-285.1235891835829
 30
0.0
 11
252.4622508272399
 21
-283.8541733283324
 31
0.0
  0
LINE
  5
A2
330
33
100
AcDbEntity
  8
EBENE_1
  6
Continuous
 62
     3
100
AcDbLine
 10
252.3271196675647
 20
-283.4159661997668
 30
0.0
 11
249.3256657584228
 21
-283.4159661997668
 31
0.0
  0
LINE
  5
A3
330
33
100
AcDbEntity
  8
1
  6
Continuous
 62
     3
100
AcDbLine
 10
244.2270534916023
 20
-284.7663411191088
 30
0.0
 11
244.2270534916023
 21
-284.9780741579727
 31
0.0
  0
LINE
  5
A4
330
33
100
AcDbEntity
  8
0
  6
Continuous
 62
     2
100
AcDbLine
 10
333.4778860884162
 20
-306.1597844212137
 30
0.0
 11
150.4778860884162
 21
-306.1597844212137
 31
0.0
  0
LINE
  5
A5
330
33
100
AcDbEntity
  8
0
  6
Continuous
 62
     3
100
AcDbLine
 10
-235.5221139115838
 20
-14.1597844212137
 30
0.0
 11
-245.5221139115838
 21
-14.1597844212137
 31
0.0
  0
LINE
  5
A6
330
33
100
AcDbEntity
  8
0
  6
Continuous
 62
     3
100
AcDbLine
 10
-235.5221139115838
 20
-285.1597844212136
 30
0.0
 11
-235.5221139115838
 21
-14.1597844212137
 31
0.0
  0
LINE
  5
A7
330
33
100
AcDbEntity
  8
0
  6
Continuous
 62
     3
100
AcDbLine
 10
-245.5221139115838
 20
98.8402155787863
 30
0.0
 11
-245.5221139115838
 21
-285.1597844212136
 31
0.0
  0
LINE
  5
A8
330
33
100
AcDbEntity
  8
0
  6
Continuous
 62
     3
100
AcDbLine
 10
328.4778860884162
 20
98.8402155787863
 30
0.0
 11
-245.5221139115838
 21
98.8402155787863
 31
0.0
  0
LINE
  5
A9
330
33
100
AcDbEntity
  8
0
  6
Continuous
 62
     3
100
AcDbLine
 10
328.4778860884162
 20
-246.2597763295803
 30
0.0
 11
328.4778860884162
 21
-236.1597844212137
 31
0.0
  0
LINE
  5
AA
330
33
100
AcDbEntity
  8
0
  6
Continuous
 62
     2
100
AcDbLine
 10
333.4778860884162
 20
103.8402155787863
 30
0.0
 11
333.4778860884162
 21
-236.1597844212137
 31
0.0
  0
LINE
  5
AB
330
33
100
AcDbEntity
  8
0
  6
Continuous
 62
     2
100
AcDbLine
 10
-250.5221139115838
 20
103.8402155787863
 30
0.0
 11
333.4778860884162
 21
103.8402155787863
 31
0.0
  0
LINE
  5
AC
330
33
100
AcDbEntity
  8
0
  6
Continuous
 62
     2
100
AcDbLine
 10
-250.5221139115838
 20
-306.1597844212137
 30
0.0
 11
-250.5221139115838
 21
103.8402155787863
 31
0.0
  0
LINE
  5
AD
330
33
100
AcDbEntity
  8
0
  6
Continuous
 62
     2
100
AcDbLine
 10
333.4778860884162
 20
-306.1597844212137
 30
0.0
 11
-250.5221139115838
 21
-306.1597844212137
 31
0.0
  0
LINE
  5
AE
330
33
100
AcDbEntity
  8
0
  6
Continuous
 62
     3
100
AcDbLine
 10
36.47788608841618
 20
-301.1597844212137
 30
0.0
 11
36.47788608841618
 21
-306.1597844212137
 31
0.0
  0
LINE
  5
AF
330
33
100
AcDbEntity
  8
0
  6
Continuous
 62
     3
100
AcDbLine
 10
-36.52211391158382
 20
-301.1597844212137
 30
0.0
 11
-36.52211391158382
 21
-306.1597844212137
 31
0.0
  0
LINE
  5
B0
330
33
100
AcDbEntity
  8
0
  6
Continuous
 62
     3
100
AcDbLine
 10
-109.5221139115838
 20
-301.1597844212137
 30
0.0
 11
-109.5221139115838
 21
-306.1597844212137
 31
0.0
  0
LINE
  5
B1
330
33
100
AcDbEntity
  8
0
  6
Continuous
 62
     3
100
AcDbLine
 10
255.4778860884162
 20
103.8402155787863
 30
0.0
 11
255.4778860884162
 21
98.8402155787863
 31
0.0
  0
LINE
  5
B2
330
33
100
AcDbEntity
  8
0
  6
Continuous
 62
     3
100
AcDbLine
 10
182.4778860884162
 20
98.8402155787863
 30
0.0
 11
182.4778860884162
 21
103.8402155787863
 31
0.0
  0
LINE
  5
B3
330
33
100
AcDbEntity
  8
0
  6
Continuous
 62
     3
100
AcDbLine
 10
109.4778860884162
 20
103.8402155787863
 30
0.0
 11
109.4778860884162
 21
98.8402155787863
 31
0.0
  0
LINE
  5
B4
330
33
100
AcDbEntity
  8
0
  6
Continuous
 62
     3
100
AcDbLine
 10
36.47788608841618
 20
98.8402155787863
 30
0.0
 11
36.47788608841618
 21
103.8402155787863
 31
0.0
  0
LINE
  5
B5
330
33
100
AcDbEntity
  8
0
  6
Continuous
 62
     3
100
AcDbLine
 10
-36.52211391158382
 20
103.8402155787863
 30
0.0
 11
-36.52211391158382
 21
98.8402155787863
 31
0.0
  0
LINE
  5
B6
330
33
100
AcDbEntity
  8
0
  6
Continuous
 62
     3
100
AcDbLine
 10
-109.5221139115838
 20
98.8402155787863
 30
0.0
 11
-109.5221139115838
 21
103.8402155787863
 31
0.0
  0
LINE
  5
B7
330
33
100
AcDbEntity
  8
0
  6
Continuous
 62
     3
100
AcDbLine
 10
-182.5221139115838
 20
103.8402155787863
 30
0.0
 11
-182.5221139115838
 21
98.8402155787863
 31
0.0
  0
LINE
  5
B8
330
33
100
AcDbEntity
  8
0
  6
Continuous
 62
     3
100
AcDbLine
 10
-177.5221139115838
 20
103.8402155787863
 30
0.0
 11
-182.5221139115838
 21
103.8402155787863
 31
0.0
  0
LINE
  5
B9
330
33
100
AcDbEntity
  8
0
  6
Continuous
 62
     3
100
AcDbLine
 10
328.4778860884162
 20
-168.1597844212137
 30
0.0
 11
333.4778860884162
 21
-168.1597844212137
 31
0.0
  0
LINE
  5
BA
330
33
100
AcDbEntity
  8
0
  6
Continuous
 62
     3
100
AcDbLine
 10
328.4778860884162
 20
-100.1597844212137
 30
0.0
 11
333.4778860884162
 21
-100.1597844212137
 31
0.0
  0
LINE
  5
BB
330
33
100
AcDbEntity
  8
0
  6
Continuous
 62
     3
100
AcDbLine
 10
328.4778860884162
 20
-32.1597844212137
 30
0.0
 11
333.4778860884162
 21
-32.1597844212137
 31
0.0
  0
LINE
  5
BC
330
33
100
AcDbEntity
  8
0
  6
Continuous
 62
     3
100
AcDbLine
 10
328.4778860884162
 20
35.8402155787863
 30
0.0
 11
333.4778860884162
 21
35.8402155787863
 31
0.0
  0
LINE
  5
BD
330
33
100
AcDbEntity
  8
0
  6
Continuous
 62
     3
100
AcDbLine
 10
-250.5221139115838
 20
-236.1597844212137
 30
0.0
 11
-245.5221139115838
 21
-236.1597844212137
 31
0.0
  0
LINE
  5
BE
330
33
100
AcDbEntity
  8
0
  6
Continuous
 62
     3
100
AcDbLine
 10
-245.5221139115838
 20
-168.1597844212137
 30
0.0
 11
-250.5221139115838
 21
-168.1597844212137
 31
0.0
  0
LINE
  5
BF
330
33
100
AcDbEntity
  8
0
  6
Continuous
 62
     3
100
AcDbLine
 10
-250.5221139115838
 20
-100.1597844212137
 30
0.0
 11
-245.5221139115838
 21
-100.1597844212137
 31
0.0
  0
LINE
  5
C0
330
33
100
AcDbEntity
  8
0
  6
Continuous
 62
     3
100
AcDbLine
 10
-245.5221139115838
 20
-32.1597844212137
 30
0.0
 11
-250.5221139115838
 21
-32.1597844212137
 31
0.0
  0
LINE
  5
C1
330
33
100
AcDbEntity
  8
0
  6
Continuous
 62
     3
100
AcDbLine
 10
-250.5221139115838
 20
35.8402155787863
 30
0.0
 11
-245.5221139115838
 21
35.8402155787863
 31
0.0
  0
LINE
  5
C2
330
33
100
AcDbEntity
  8
0
  6
Continuous
 62
     3
100
AcDbLine
 10
40.47788608841618
 20
-301.1597844212137
 30
0.0
 11
-166.5429261924628
 21
-301.1597844212137
 31
0.0
  0
LINE
  5
C3
330
33
100
AcDbEntity
  8
1
  6
Continuous
 62
     3
100
AcDbLine
 10
328.4778860884162
 20
-236.1597844212137
 30
0.0
 11
333.4778860884162
 21
-236.1597844212137
 31
0.0
  0
LINE
  5
C4
330
33
100
AcDbEntity
  8
0
  6
Continuous
 62
     3
100
AcDbLine
 10
328.4778860884162
 20
-236.1597844212137
 30
0.0
 11
328.4778860884162
 21
98.8402155787863
 31
0.0
  0
LINE
  5
C5
330
33
100
AcDbEntity
  8
0
  6
Continuous
 62
     2
100
AcDbLine
 10
333.4778860884162
 20
-236.1597844212137
 30
0.0
 11
333.4778860884162
 21
-306.1597844212137
 31
0.0
  0
LINE
  5
C6
330
33
100
AcDbEntity
  8
0
  6
Continuous
 62
     1
100
AcDbLine
 10
107.4778860884162
 20
-291.1597844212137
 30
0.0
 11
107.4778860884162
 21
-276.1597844212137
 31
0.0
  0
LINE
  5
C7
330
33
100
AcDbEntity
  8
0
  6
Continuous
 62
     3
100
AcDbLine
 10
60.47788608841618
 20
-283.6597844212137
 30
0.0
 11
107.4778860884162
 21
-283.6597844212137
 31
0.0
  0
LINE
  5
C8
330
33
100
AcDbEntity
  8
0
  6
Continuous
 62
     3
100
AcDbLine
 10
60.47788608841618
 20
-287.4097844212137
 30
0.0
 11
107.4778860884162
 21
-287.4097844212137
 31
0.0
  0
LINE
  5
C9
330
33
100
AcDbEntity
  8
0
  6
Continuous
 62
     3
100
AcDbLine
 10
107.4778860884162
 20
-283.6597844212137
 30
0.0
 11
150.4778860884162
 21
-283.6597844212137
 31
0.0
  0
LINE
  5
CA
330
33
100
AcDbEntity
  8
0
  6
Continuous
 62
     3
100
AcDbLine
 10
107.4778860884162
 20
-287.4097844212137
 30
0.0
 11
150.4778860884162
 21
-287.4097844212137
 31
0.0
  0
LINE
  5
CB
330
33
100
AcDbEntity
  8
0
  6
Continuous
 62
     3
100
AcDbLine
 10
118.2278860884162
 20
-283.6597844212137
 30
0.0
 11
118.2278860884162
 21
-291.1597844212137
 31
0.0
  0
LINE
  5
CC
330
33
100
AcDbEntity
  8
0
  6
Continuous
 62
     3
100
AcDbLine
 10
128.9778860884162
 20
-291.1597844212137
 30
0.0
 11
128.9778860884162
 21
-283.6597844212137
 31
0.0
  0
LINE
  5
CD
330
33
100
AcDbEntity
  8
0
  6
Continuous
 62
     3
100
AcDbLine
 10
139.7278860884162
 20
-283.6597844212137
 30
0.0
 11
139.7278860884162
 21
-291.1597844212137
 31
0.0
  0
LINE
  5
CE
330
33
100
AcDbEntity
  8
0
  6
Continuous
 62
     3
100
AcDbLine
 10
92.47788608841618
 20
-298.6597844212137
 30
0.0
 11
150.4778860884162
 21
-298.6597844212137
 31
0.0
  0
LINE
  5
CF
330
33
100
AcDbEntity
  8
0
  6
Continuous
 62
     3
100
AcDbLine
 10
150.4778860884162
 20
-302.4097844212137
 30
0.0
 11
92.47788608841618
 21
-302.4097844212137
 31
0.0
  0
LINE
  5
D0
330
33
100
AcDbEntity
  8
0
  6
Continuous
 62
     3
100
AcDbLine
 10
102.4778860884162
 20
-298.6597844212137
 30
0.0
 11
102.4778860884162
 21
-306.1597844212137
 31
0.0
  0
LINE
  5
D1
330
33
100
AcDbEntity
  8
0
  6
Continuous
 62
     3
100
AcDbLine
 10
111.4778860884162
 20
-306.1597844212137
 30
0.0
 11
111.4778860884162
 21
-298.6597844212137
 31
0.0
  0
LINE
  5
D2
330
33
100
AcDbEntity
  8
0
  6
Continuous
 62
     3
100
AcDbLine
 10
123.4778860884162
 20
-298.6597844212137
 30
0.0
 11
123.4778860884162
 21
-306.1597844212137
 31
0.0
  0
LINE
  5
D3
330
33
100
AcDbEntity
  8
0
  6
Continuous
 62
     3
100
AcDbLine
 10
136.4778860884162
 20
-306.1597844212137
 30
0.0
 11
136.4778860884162
 21
-298.6597844212137
 31
0.0
  0
LINE
  5
D4
330
33
100
AcDbEntity
  8
0
  6
Continuous
 62
     3
100
AcDbLine
 10
67.97788608841617
 20
-283.6597844212137
 30
0.0
 11
67.97788608841617
 21
-291.1597844212136
 31
0.0
  0
LINE
  5
D5
330
33
100
AcDbEntity
  8
0
  6
Continuous
 62
     3
100
AcDbLine
 10
74.97788608841618
 20
-283.6597844212137
 30
0.0
 11
74.97788608841618
 21
-291.1597844212136
 31
0.0
  0
LINE
  5
D6
330
33
100
AcDbEntity
  8
0
  6
Continuous
 62
     3
100
AcDbLine
 10
83.97788608841618
 20
-283.6597844212137
 30
0.0
 11
83.97788608841618
 21
-291.1597844212136
 31
0.0
  0
LINE
  5
D7
330
33
100
AcDbEntity
  8
0
  6
Continuous
 62
     3
100
AcDbLine
 10
93.97788608841618
 20
-283.6597844212137
 30
0.0
 11
93.97788608841618
 21
-291.1597844212136
 31
0.0
  0
LINE
  5
D8
330
33
100
AcDbEntity
  8
0
  6
Continuous
 62
     1
100
AcDbLine
 10
150.4778860884162
 20
-291.1597844212137
 30
0.0
 11
92.47788608841618
 21
-291.1597844212137
 31
0.0
  0
LINE
  5
D9
330
33
100
AcDbEntity
  8
0
  6
Continuous
 62
     1
100
AcDbLine
 10
92.47788608841618
 20
-291.1597844212137
 30
0.0
 11
92.47788608841618
 21
-306.1597844212137
 31
0.0
  0
LINE
  5
DA
330
33
100
AcDbEntity
  8
0
  6
Continuous
 62
     2
100
AcDbLine
 10
333.4778860884162
 20
-306.1597844212137
 30
0.0
 11
150.4778860884162
 21
-306.1597844212137
 31
0.0
  0
LINE
  5
DB
330
33
100
AcDbEntity
  8
0
  6
Continuous
 62
     2
100
AcDbLine
 10
60.47788608841618
 20
-291.1597844212136
 30
0.0
 11
150.4778860884162
 21
-291.1597844212137
 31
0.0
  0
LINE
  5
DC
330
33
100
AcDbEntity
  8
0
  6
Continuous
 62
     2
100
AcDbLine
 10
60.47788608841618
 20
-291.1597844212136
 30
0.0
 11
60.47788608841618
 21
-276.1597844212137
 31
0.0
  0
LINE
  5
DD
330
33
100
AcDbEntity
  8
0
  6
Continuous
 62
     2
100
AcDbLine
 10
60.47788608841618
 20
-276.1597844212137
 30
0.0
 11
150.4778860884162
 21
-276.1597844212137
 31
0.0
  0
LINE
  5
DE
330
33
100
AcDbEntity
  8
0
  6
Continuous
 62
     2
100
AcDbLine
 10
150.4778860884162
 20
-291.1597844212137
 30
0.0
 11
150.4778860884162
 21
-276.1597844212137
 31
0.0
  0
LINE
  5
DF
330
33
100
AcDbEntity
  8
0
  6
Continuous
 62
     3
100
AcDbLine
 10
40.47788608841618
 20
-296.1597844212136
 30
0.0
 11
92.47788608841618
 21
-296.1597844212137
 31
0.0
  0
LINE
  5
E0
330
33
100
AcDbEntity
  8
0
  6
Continuous
 62
     3
100
AcDbLine
 10
92.47788608841618
 20
-301.1597844212137
 30
0.0
 11
40.47788608841618
 21
-301.1597844212137
 31
0.0
  0
LINE
  5
E1
330
33
100
AcDbEntity
  8
0
  6
Continuous
 62
     3
100
AcDbLine
 10
83.37788008841618
 20
-306.1597844212136
 30
0.0
 11
83.37788008841618
 21
-291.1597844212136
 31
0.0
  0
LINE
  5
E2
330
33
100
AcDbEntity
  8
0
  6
Continuous
 62
     3
100
AcDbLine
 10
75.37788008841618
 20
-291.1597844212136
 30
0.0
 11
75.37788008841618
 21
-306.1597844212136
 31
0.0
  0
LINE
  5
E3
330
33
100
AcDbEntity
  8
0
  6
Continuous
 62
     3
100
AcDbLine
 10
69.37788008841618
 20
-306.1597844212136
 30
0.0
 11
69.37788008841618
 21
-291.1597844212136
 31
0.0
  0
LINE
  5
E4
330
33
100
AcDbEntity
  8
0
  6
Continuous
 62
     3
100
AcDbLine
 10
63.37788008841617
 20
-291.1597844212136
 30
0.0
 11
63.37788008841617
 21
-306.1597844212136
 31
0.0
  0
LINE
  5
E5
330
33
100
AcDbEntity
  8
0
  6
Continuous
 62
     3
100
AcDbLine
 10
57.37788008841617
 20
-306.1597844212136
 30
0.0
 11
57.37788008841617
 21
-296.1597844212136
 31
0.0
  0
LINE
  5
E6
330
33
100
AcDbEntity
  8
0
  6
Continuous
 62
     3
100
AcDbLine
 10
61.13831708841619
 20
-299.2219794212137
 30
0.0
 11
60.0888940884162
 21
-298.3261664212136
 31
0.0
  0
LINE
  5
E7
330
33
100
AcDbEntity
  8
0
  6
Continuous
 62
     3
100
AcDbLine
 10
58.72788608841618
 20
-303.4097844212136
 30
0.0
 11
62.72788608841618
 21
-303.4097844212136
 31
0.0
  0
LINE
  5
E8
330
33
100
AcDbEntity
  8
0
  6
Continuous
 62
     3
100
AcDbLine
 10
61.22788608841618
 20
-294.9097844212136
 30
0.0
 11
62.53173408841619
 21
-292.7758124212137
 31
0.0
  0
LINE
  5
E9
330
33
100
AcDbEntity
  8
0
  6
Continuous
 62
     3
100
AcDbLine
 10
61.22788608841618
 20
-294.9097844212136
 30
0.0
 11
60.22788608841618
 21
-293.1777284212137
 31
0.0
  0
LINE
  5
EA
330
33
100
AcDbEntity
  8
0
  6
Continuous
 62
     3
100
AcDbLine
 10
66.37788008841616
 20
-300.1597844212136
 30
0.0
 11
67.37788008841616
 21
-298.4277284212137
 31
0.0
  0
LINE
  5
EB
330
33
100
AcDbEntity
  8
0
  6
Continuous
 62
     3
100
AcDbLine
 10
67.37788008841616
 20
-298.4277284212137
 30
0.0
 11
65.37788008841616
 21
-298.4277284212137
 31
0.0
  0
LINE
  5
EC
330
33
100
AcDbEntity
  8
0
  6
Continuous
 62
     3
100
AcDbLine
 10
65.37788008841616
 20
-298.4277284212137
 30
0.0
 11
66.37788008841616
 21
-300.1597844212136
 31
0.0
  0
LINE
  5
ED
330
33
100
AcDbEntity
  8
0
  6
Continuous
 62
     3
100
AcDbLine
 10
71.37788008841618
 20
-300.1597844212136
 30
0.0
 11
70.37788008841618
 21
-298.4277284212137
 31
0.0
  0
LINE
  5
EE
330
33
100
AcDbEntity
  8
0
  6
Continuous
 62
     3
100
AcDbLine
 10
70.37788008841618
 20
-298.4277284212137
 30
0.0
 11
72.37788008841618
 21
-298.4277284212137
 31
0.0
  0
LINE
  5
EF
330
33
100
AcDbEntity
  8
0
  6
Continuous
 62
     3
100
AcDbLine
 10
72.37788008841618
 20
-298.4277284212137
 30
0.0
 11
71.37788008841618
 21
-300.1597844212136
 31
0.0
  0
LINE
  5
F0
330
33
100
AcDbEntity
  8
0
  6
Continuous
 62
     3
100
AcDbLine
 10
72.37788008841618
 20
-298.4277284212137
 30
0.0
 11
73.37788008841618
 21
-300.1597844212136
 31
0.0
  0
LINE
  5
F1
330
33
100
AcDbEntity
  8
0
  6
Continuous
 62
     3
100
AcDbLine
 10
73.37788008841618
 20
-300.1597844212136
 30
0.0
 11
74.37788008841618
 21
-298.4277284212137
 31
0.0
  0
LINE
  5
F2
330
33
100
AcDbEntity
  8
0
  6
Continuous
 62
     3
100
AcDbLine
 10
74.37788008841618
 20
-298.4277284212137
 30
0.0
 11
72.37788008841618
 21
-298.4277284212137
 31
0.0
  0
LINE
  5
F3
330
33
100
AcDbEntity
  8
0
  6
Continuous
 62
     3
100
AcDbLine
 10
77.37788008841618
 20
-300.1597844212136
 30
0.0
 11
76.37788008841618
 21
-298.4277284212137
 31
0.0
  0
LINE
  5
F4
330
33
100
AcDbEntity
  8
0
  6
Continuous
 62
     3
100
AcDbLine
 10
76.37788008841618
 20
-298.4277284212137
 30
0.0
 11
78.37788008841618
 21
-298.4277284212137
 31
0.0
  0
LINE
  5
F5
330
33
100
AcDbEntity
  8
0
  6
Continuous
 62
     3
100
AcDbLine
 10
78.37788008841618
 20
-298.4277284212137
 30
0.0
 11
77.37788008841618
 21
-300.1597844212136
 31
0.0
  0
LINE
  5
F6
330
33
100
AcDbEntity
  8
0
  6
Continuous
 62
     3
100
AcDbLine
 10
78.37788008841618
 20
-298.4277284212137
 30
0.0
 11
79.37788008841618
 21
-300.1597844212136
 31
0.0
  0
LINE
  5
F7
330
33
100
AcDbEntity
  8
0
  6
Continuous
 62
     3
100
AcDbLine
 10
79.37788008841618
 20
-300.1597844212136
 30
0.0
 11
80.37788008841618
 21
-298.4277284212137
 31
0.0
  0
LINE
  5
F8
330
33
100
AcDbEntity
  8
0
  6
Continuous
 62
     3
100
AcDbLine
 10
80.37788008841618
 20
-298.4277284212137
 30
0.0
 11
78.37788008841618
 21
-298.4277284212137
 31
0.0
  0
LINE
  5
F9
330
33
100
AcDbEntity
  8
0
  6
Continuous
 62
     3
100
AcDbLine
 10
80.37788008841618
 20
-298.4277284212137
 30
0.0
 11
81.37788008841618
 21
-300.1597844212136
 31
0.0
  0
LINE
  5
FA
330
33
100
AcDbEntity
  8
0
  6
Continuous
 62
     3
100
AcDbLine
 10
81.37788008841618
 20
-300.1597844212136
 30
0.0
 11
82.37788008841618
 21
-298.4277284212137
 31
0.0
  0
LINE
  5
FB
330
33
100
AcDbEntity
  8
0
  6
Continuous
 62
     3
100
AcDbLine
 10
82.37788008841618
 20
-298.4277284212137
 30
0.0
 11
80.37788008841618
 21
-298.4277284212137
 31
0.0
  0
LINE
  5
FC
330
33
100
AcDbEntity
  8
0
  6
Continuous
 62
     3
100
AcDbLine
 10
84.37788008841616
 20
-300.1597844212136
 30
0.0
 11
83.37788008841618
 21
-298.4277284212137
 31
0.0
  0
LINE
  5
FD
330
33
100
AcDbEntity
  8
0
  6
Continuous
 62
     3
100
AcDbLine
 10
84.37788008841616
 20
-300.1597844212136
 30
0.0
 11
85.37789508841618
 21
-298.4277284212137
 31
0.0
  0
LINE
  5
FE
330
33
100
AcDbEntity
  8
0
  6
Continuous
 62
     3
100
AcDbLine
 10
85.37789508841618
 20
-298.4277284212137
 30
0.0
 11
86.37789508841618
 21
-300.1597844212136
 31
0.0
  0
LINE
  5
FF
330
33
100
AcDbEntity
  8
0
  6
Continuous
 62
     3
100
AcDbLine
 10
86.37789508841618
 20
-300.1597844212136
 30
0.0
 11
87.37789508841618
 21
-298.4277284212137
 31
0.0
  0
LINE
  5
100
330
33
100
AcDbEntity
  8
0
  6
Continuous
 62
     3
100
AcDbLine
 10
87.37789508841618
 20
-298.4277284212137
 30
0.0
 11
88.37789508841618
 21
-300.1597844212136
 31
0.0
  0
LINE
  5
101
330
33
100
AcDbEntity
  8
0
  6
Continuous
 62
     3
100
AcDbLine
 10
88.37789508841618
 20
-300.1597844212136
 30
0.0
 11
89.37789508841618
 21
-298.4277284212137
 31
0.0
  0
LINE
  5
102
330
33
100
AcDbEntity
  8
0
  6
Continuous
 62
     3
100
AcDbLine
 10
89.37789508841618
 20
-298.4277284212137
 30
0.0
 11
90.37789508841618
 21
-300.1597844212136
 31
0.0
  0
LINE
  5
103
330
33
100
AcDbEntity
  8
0
  6
Continuous
 62
     3
100
AcDbLine
 10
90.37789508841618
 20
-300.1597844212136
 30
0.0
 11
91.37789508841618
 21
-298.4277284212137
 31
0.0
  0
LINE
  5
104
330
33
100
AcDbEntity
  8
0
  6
Continuous
 62
     3
100
AcDbLine
 10
91.37789508841618
 20
-298.4277284212137
 30
0.0
 11
83.37788008841618
 21
-298.4277284212137
 31
0.0
  0
LINE
  5
105
330
33
100
AcDbEntity
  8
0
  6
Continuous
 62
     2
100
AcDbLine
 10
92.47788608841618
 20
-306.1597844212137
 30
0.0
 11
40.47788608841618
 21
-306.1597844212136
 31
0.0
  0
LINE
  5
106
330
33
100
AcDbEntity
  8
1
  6
Continuous
 62
     2
100
AcDbLine
 10
92.47788608841618
 20
-291.1597844212137
 30
0.0
 11
40.47788608841618
 21
-291.1597844212136
 31
0.0
  0
LINE
  5
107
330
33
100
AcDbEntity
  8
1
  6
Continuous
 62
     2
100
AcDbLine
 10
40.47788608841618
 20
-291.1597844212136
 30
0.0
 11
40.47788608841618
 21
-306.1597844212136
 31
0.0
  0
ARC
  5
108
330
33
100
AcDbEntity
  8
1
  6
Continuous
 62
     3
100
AcDbCircle
 10
252.4046312816664
 20
-285.1812087291564
 30
0.0
 40
0.0576195914921896
100
AcDbArc
 50
0.07233481467632
 51
90.07233481476108
  0
ARC
  5
109
330
33
100
AcDbEntity
  8
1
  6
Continuous
 62
     3
100
AcDbCircle
 10
252.4046312816664
 20
-285.5327454907306
 30
0.0
 40
0.0576195914922181
100
AcDbArc
 50
-90.07233481476108
 51
-0.07233481467632
  0
ARC
  5
10A
330
33
100
AcDbEntity
  8
1
  6
Continuous
 62
     3
100
AcDbCircle
 10
249.325593014821
 20
-285.5327454907306
 30
0.0
 40
0.057619591492218
100
AcDbArc
 50
-179.9276651853237
 51
-89.92766518526719
  0
ARC
  5
10B
330
33
100
AcDbEntity
  8
1
  6
Continuous
 62
     3
100
AcDbCircle
 10
249.3256657584228
 20
-283.7967723414292
 30
0.0
 40
0.0576922891752929
100
AcDbArc
 50
180.0
 51
-90.0
  0
ARC
  5
10C
330
33
100
AcDbEntity
  8
1
  6
Continuous
 62
     3
100
AcDbCircle
 10
249.3256657584228
 20
-283.4736584889419
 30
0.0
 40
0.0576922891751224
100
AcDbArc
 50
90.0
 51
180.0
  0
ARC
  5
10D
330
33
100
AcDbEntity
  8
1
  6
Continuous
 62
     3
100
AcDbCircle
 10
253.8435066158575
 20
-285.066693211966
 30
0.0
 40
0.0569016875724697
100
AcDbArc
 50
-179.4434174193011
 51
-89.1878745570507
  0
ARC
  5
10E
330
33
100
AcDbEntity
  8
1
  6
Continuous
 62
     3
100
AcDbCircle
 10
253.8435066158575
 20
-284.7651191896918
 30
0.0
 40
0.0569016875726185
100
AcDbArc
 50
89.18787455705234
 51
179.4434174191866
  0
ARC
  5
10F
330
33
100
AcDbEntity
  8
1
  6
Continuous
 62
     3
100
AcDbCircle
 10
253.8435066158575
 20
-283.9113606022213
 30
0.0
 40
0.0569016875726185
100
AcDbArc
 50
89.18787455705234
 51
179.4434174192438
  0
ARC
  5
110
330
33
100
AcDbEntity
  8
1
  6
Continuous
 62
     3
100
AcDbCircle
 10
253.8435066158575
 20
-284.2083054862077
 30
0.0
 40
0.0569016875724703
100
AcDbArc
 50
-179.4434174192438
 51
-89.18787455705152
  0
ARC
  5
111
330
33
100
AcDbEntity
  8
1
  6
Continuous
 62
     3
100
AcDbCircle
 10
246.4309997367247
 20
-285.066693211966
 30
0.0
 40
0.056901687572555
100
AcDbArc
 50
-179.4434174193019
 51
-89.18787455713655
  0
ARC
  5
112
330
33
100
AcDbEntity
  8
1
  6
Continuous
 62
     3
100
AcDbCircle
 10
246.4309997367247
 20
-284.7651191896918
 30
0.0
 40
0.0569016875726173
100
AcDbArc
 50
89.18787455713819
 51
179.4434174191875
  0
ARC
  5
113
330
33
100
AcDbEntity
  8
1
  6
Continuous
 62
     3
100
AcDbCircle
 10
246.4309997367247
 20
-283.9113606022213
 30
0.0
 40
0.0569016875726173
100
AcDbArc
 50
89.18787455713819
 51
179.4434174192447
  0
ARC
  5
114
330
33
100
AcDbEntity
  8
1
  6
Continuous
 62
     3
100
AcDbCircle
 10
246.4309997367247
 20
-284.2083054862077
 30
0.0
 40
0.0569016875725555
100
AcDbArc
 50
-179.4434174192447
 51
-89.18787455713738
  0
ARC
  5
115
330
33
100
AcDbEntity
  8
1
  6
Continuous
 62
     3
100
AcDbCircle
 10
244.1675889037683
 20
-284.7677034083764
 30
0.0
 40
0.0594801903016278
100
AcDbArc
 50
1.3123739291536
 51
90.0
  0
ARC
  5
116
330
33
100
AcDbEntity
  8
1
  6
Continuous
 62
     3
100
AcDbCircle
 10
256.849933261932
 20
-285.8178673439846
 30
0.0
 40
0.1365199011614209
100
AcDbArc
 50
-90.0
 51
0.0
  0
ARC
  5
117
330
33
100
AcDbEntity
  8
1
  6
Continuous
 62
     3
100
AcDbCircle
 10
256.849933261932
 20
-283.1924714032326
 30
0.0
 40
0.1365199011614209
100
AcDbArc
 50
0.0
 51
90.0
  0
ARC
  5
118
330
33
100
AcDbEntity
  8
1
  6
Continuous
 62
     3
100
AcDbCircle
 10
241.1352520291921
 20
-285.8178673439846
 30
0.0
 40
0.1365199011613925
100
AcDbArc
 50
180.0
 51
-90.0
  0
ARC
  5
119
330
33
100
AcDbEntity
  8
1
  6
Continuous
 62
     3
100
AcDbCircle
 10
241.1352520291921
 20
-283.1924714032326
 30
0.0
 40
0.1365199011614209
100
AcDbArc
 50
90.0
 51
180.0
  0
ARC
  5
11A
330
33
100
AcDbEntity
  8
0
  6
Continuous
 62
     3
100
AcDbCircle
 10
58.79038608841618
 20
-299.8472844212136
 30
0.0
 40
1.999980999999914
100
AcDbArc
 50
49.51415899999652
 51
128.671892000001
  0
ARC
  5
11B
330
33
100
AcDbEntity
  8
0
  6
Continuous
 62
     3
100
AcDbCircle
 10
62.43682508841616
 20
-297.7008304212137
 30
0.0
 40
2.000003999999888
100
AcDbArc
 50
-130.4852739999997
 51
-74.06607299999955
  0
SPLINE
  5
11C
330
33
100
AcDbEntity
  8
1
  6
Continuous
 62
     3
100
AcDbSpline
210
0.0
220
0.0
230
1.0
 70
     8
 71
     3
 72
    13
 73
     9
 74
     7
 42
0.0000000001
 43
0.0000000001
 44
0.00000001
 40
0.0
 40
0.0
 40
0.0
 40
0.0
 40
0.0353323702701389
 40
0.0704203827950319
 40
0.1027084056750238
 40
0.13522933716879
 40
0.1740111215768744
 40
0.2125287438769444
 40
0.2125287438769444
 40
0.2125287438769444
 40
0.2125287438769444
 10
252.4622508272399
 20
-283.5551577750257
 30
0.0
 10
252.4613646330931
 20
-283.5433358696226
 30
0.0
 10
252.4595983736951
 20
-283.519773818804
 30
0.0
 10
252.4451422410205
 20
-283.4880073353975
 30
0.0
 10
252.4244545146381
 20
-283.4616359264726
 30
0.0
 10
252.398196956981
 20
-283.4391269910304
 30
0.0
 10
252.3659035276718
 20
-283.4201588111274
 30
0.0
 10
252.3400181341177
 20
-283.4173605493042
 30
0.0
 10
252.3271196675647
 20
-283.4159661997668
 30
0.0
 11
252.4622508272399
 21
-283.5551577750257
 31
0.0
 11
252.4575417486999
 21
-283.5201406225399
 31
0.0
 11
252.4435358824479
 21
-283.4879691393059
 31
0.0
 11
252.4237566255293
 21
-283.4624486099766
 31
0.0
 11
252.399181966486
 21
-283.441148442885
 31
0.0
 11
252.3650317066722
 21
-283.4227694723882
 31
0.0
 11
252.3271196675647
 21
-283.4159661997668
 31
0.0
  0
SPLINE
  5
11D
330
33
100
AcDbEntity
  8
1
  6
Continuous
 62
     3
100
AcDbSpline
210
0.0
220
0.0
230
1.0
 70
     8
 71
     3
 72
    13
 73
     9
 74
     7
 42
0.0000000001
 43
0.0000000001
 44
0.00000001
 40
0.0
 40
0.0
 40
0.0
 40
0.0
 40
0.0381152522464833
 40
0.0763355512008766
 40
0.1127548768760349
 40
0.148642157141294
 40
0.1827729054944306
 40
0.2174479487763251
 40
0.2174479487763251
 40
0.2174479487763251
 40
0.2174479487763251
 10
253.0796985181738
 20
-285.5897301830532
 30
0.0
 10
253.0669465997333
 20
-285.5887620098807
 30
0.0
 10
253.0414076182062
 20
-285.5868229952233
 30
0.0
 10
253.0065322845487
 20
-285.5710619577179
 30
0.0
 10
252.9769823858192
 20
-285.5487033271573
 30
0.0
 10
252.9546786645128
 20
-285.5203449120224
 30
0.0
 10
252.9433800392513
 20
-285.4866146065305
 30
0.0
 10
252.9424722198056
 20
-285.4636297330484
 30
0.0
 10
252.9420147193857
 20
-285.4520463842652
 30
0.0
 11
253.0796985181738
 21
-285.5897301830532
 31
0.0
 11
253.0419234935639
 21
-285.5846488476447
 31
0.0
 11
253.0067962031959
 21
-285.5695868184466
 31
0.0
 11
252.97790053114
 21
-285.5474191072641
 31
0.0
 11
252.9561798825463
 21
-285.5188514628126
 31
0.0
 11
252.9450425523255
 21
-285.4865889790474
 31
0.0
 11
252.9420147193857
 21
-285.4520463842652
 31
0.0
  0
SPLINE
  5
11E
330
33
100
AcDbEntity
  8
1
  6
Continuous
 62
     3
100
AcDbSpline
210
0.0
220
0.0
230
1.0
 70
     8
 71
     3
 72
    13
 73
     9
 74
     7
 42
0.0000000001
 43
0.0000000001
 44
0.00000001
 40
0.0
 40
0.0
 40
0.0
 40
0.0
 40
0.0381152522464833
 40
0.0763355512008542
 40
0.1127548768760817
 40
0.148642157141386
 40
0.1827729054945764
 40
0.2174479487763577
 40
0.2174479487763577
 40
0.2174479487763577
 40
0.2174479487763577
 10
253.0796985181738
 20
-283.4159661997668
 30
0.0
 10
253.0669465997334
 20
-283.4169343729393
 30
0.0
 10
253.0414076182063
 20
-283.4188733875967
 30
0.0
 10
253.0065322845486
 20
-283.4346344251019
 30
0.0
 10
252.9769823858192
 20
-283.4569930556627
 30
0.0
 10
252.9546786645129
 20
-283.4853514707977
 30
0.0
 10
252.9433800392512
 20
-283.5190817762897
 30
0.0
 10
252.9424722198056
 20
-283.5420666497716
 30
0.0
 10
252.9420147193857
 20
-283.5536499985548
 30
0.0
 11
253.0796985181738
 21
-283.4159661997668
 31
0.0
 11
253.0419234935639
 21
-283.4210475351753
 31
0.0
 11
253.0067962031959
 21
-283.4361095643733
 31
0.0
 11
252.97790053114
 21
-283.4582772755559
 31
0.0
 11
252.9561798825463
 21
-283.4868449200075
 31
0.0
 11
252.9450425523255
 21
-283.5191074037727
 31
0.0
 11
252.9420147193857
 21
-283.5536499985548
 31
0.0
  0
SPLINE
  5
11F
330
33
100
AcDbEntity
  8
1
  6
Continuous
 62
     3
100
AcDbSpline
210
0.0
220
0.0
230
1.0
 70
     8
 71
     3
 72
    13
 73
     9
 74
     7
 42
0.0000000001
 43
0.0000000001
 44
0.00000001
 40
0.0
 40
0.0
 40
0.0
 40
0.0
 40
0.0381152522464833
 40
0.0763355512009027
 40
0.1127548768759934
 40
0.1486421571412181
 40
0.182772905494364
 40
0.2174479487762635
 40
0.2174479487762635
 40
0.2174479487762635
 40
0.2174479487762635
 10
245.667191639041
 20
-285.5897301830532
 30
0.0
 10
245.6544397206005
 20
-285.5887620098808
 30
0.0
 10
245.6289007390734
 20
-285.5868229952234
 30
0.0
 10
245.5940254054158
 20
-285.5710619577179
 30
0.0
 10
245.5644755066864
 20
-285.5487033271573
 30
0.0
 10
245.5421717853801
 20
-285.5203449120224
 30
0.0
 10
245.5308731601185
 20
-285.4866146065304
 30
0.0
 10
245.5299653406728
 20
-285.4636297330484
 30
0.0
 10
245.5295078402529
 20
-285.4520463842652
 30
0.0
 11
245.667191639041
 21
-285.5897301830532
 31
0.0
 11
245.6294166144311
 21
-285.5846488476447
 31
0.0
 11
245.594289324063
 21
-285.5695868184466
 31
0.0
 11
245.5653936520072
 21
-285.5474191072641
 31
0.0
 11
245.5436730034136
 21
-285.5188514628126
 31
0.0
 11
245.5325356731928
 21
-285.4865889790474
 31
0.0
 11
245.5295078402529
 21
-285.4520463842652
 31
0.0
  0
SPLINE
  5
120
330
33
100
AcDbEntity
  8
1
  6
Continuous
 62
     3
100
AcDbSpline
210
0.0
220
0.0
230
1.0
 70
     8
 71
     3
 72
    13
 73
     9
 74
     7
 42
0.0000000001
 43
0.0000000001
 44
0.00000001
 40
0.0
 40
0.0
 40
0.0
 40
0.0
 40
0.0381152522464833
 40
0.0763355512008803
 40
0.1127548768760402
 40
0.1486421571413101
 40
0.1827729054945097
 40
0.217447948776296
 40
0.217447948776296
 40
0.217447948776296
 40
0.217447948776296
 10
245.667191639041
 20
-283.4159661997668
 30
0.0
 10
245.6544397206005
 20
-283.4169343729392
 30
0.0
 10
245.6289007390734
 20
-283.4188733875967
 30
0.0
 10
245.5940254054158
 20
-283.4346344251019
 30
0.0
 10
245.5644755066864
 20
-283.4569930556627
 30
0.0
 10
245.5421717853802
 20
-283.4853514707976
 30
0.0
 10
245.5308731601185
 20
-283.5190817762898
 30
0.0
 10
245.5299653406728
 20
-283.5420666497716
 30
0.0
 10
245.5295078402529
 20
-283.5536499985548
 30
0.0
 11
245.667191639041
 21
-283.4159661997668
 31
0.0
 11
245.6294166144311
 21
-283.4210475351753
 31
0.0
 11
245.594289324063
 21
-283.4361095643733
 31
0.0
 11
245.5653936520072
 21
-283.4582772755559
 31
0.0
 11
245.5436730034136
 21
-283.4868449200075
 31
0.0
 11
245.5325356731928
 21
-283.5191074037727
 31
0.0
 11
245.5295078402529
 21
-283.5536499985548
 31
0.0
  0
SPLINE
  5
121
330
33
100
AcDbEntity
  8
1
  6
Continuous
 62
     3
100
AcDbSpline
210
0.0
220
0.0
230
1.0
 70
     8
 71
     3
 72
    13
 73
     9
 74
     7
 42
0.0000000001
 43
0.0000000001
 44
0.00000001
 40
0.0
 40
0.0
 40
0.0
 40
0.0
 40
0.0303249383641704
 40
0.0604417851174894
 40
0.0959479298118696
 40
0.1315593707300375
 40
0.1736623627998646
 40
0.2160932553485234
 40
0.2160932553485234
 40
0.2160932553485234
 40
0.2160932553485234
 10
244.2262202467104
 20
-283.9931139353781
 30
0.0
 10
244.2255470675792
 20
-283.9829747466481
 30
0.0
 10
244.2242053287138
 20
-283.962765944931
 30
0.0
 10
244.2125039677613
 20
-283.9325752311971
 30
0.0
 10
244.1944780155357
 20
-283.9038206982621
 30
0.0
 10
244.1673731231646
 20
-283.8769872569092
 30
0.0
 10
244.1304126258419
 20
-283.8588138131421
 30
0.0
 10
244.1021173408839
 20
-283.8567458681057
 30
0.0
 10
244.0879148207809
 20
-283.8557078848873
 30
0.0
 11
244.2262202467104
 21
-283.9931139353781
 31
0.0
 11
244.2226829475394
 21
-283.9629960104601
 31
0.0
 11
244.2123857362847
 21
-283.9346942101863
 31
0.0
 11
244.1934094475684
 21
-283.9046844321529
 31
0.0
 11
244.1678137476281
 21
-283.8799248911872
 31
0.0
 11
244.129945433183
 21
-283.8615223722749
 31
0.0
 11
244.0879148207809
 21
-283.8557078848873
 31
0.0
  0
SPLINE
  5
122
330
33
100
AcDbEntity
  8
1
  6
Continuous
 62
     3
100
AcDbSpline
210
0.0
220
0.0
230
1.0
 70
     8
 71
     3
 72
    13
 73
     9
 74
     7
 42
0.0000000001
 43
0.0000000001
 44
0.00000001
 40
0.0
 40
0.0
 40
0.0
 40
0.0
 40
0.037551074855574
 40
0.0754042334906866
 40
0.1094159352409456
 40
0.1434580761259794
 40
0.1794330429164583
 40
0.2157095328192968
 40
0.2157095328192968
 40
0.2157095328192968
 40
0.2157095328192968
 10
244.0909303737227
 20
-285.1150172946347
 30
0.0
 10
244.1034840122583
 20
-285.1142764618197
 30
0.0
 10
244.1286922784647
 20
-285.112788836478
 30
0.0
 10
244.1632199099868
 20
-285.098797020568
 30
0.0
 10
244.1908567765004
 20
-285.0762280189452
 30
0.0
 10
244.2116453675517
 20
-285.0480035843999
 30
0.0
 10
244.2241531595558
 20
-285.0142488283337
 30
0.0
 10
244.2260840282567
 20
-284.9901658827795
 30
0.0
 10
244.2270534916023
 20
-284.9780741579727
 30
0.0
 11
244.0909303737227
 21
-285.1150172946347
 31
0.0
 11
244.1282407468127
 21
-285.1107723820687
 31
0.0
 11
244.163343322653
 21
-285.0966065503587
 31
0.0
 11
244.1898099148344
 21
-285.0752450112229
 31
0.0
 11
244.2098992277187
 21
-285.047762528368
 31
0.0
 11
244.2224885833382
 21
-285.0140622856291
 31
0.0
 11
244.2270534916023
 21
-284.9780741579727
 31
0.0
  0
SPLINE
  5
123
330
33
100
AcDbEntity
  8
1
  6
Continuous
 62
     3
100
AcDbSpline
210
0.0
220
0.0
230
1.0
 70
     8
 71
     3
 72
    13
 73
     9
 74
     7
 42
0.0000000001
 43
0.0000000001
 44
0.00000001
 40
0.0
 40
0.0
 40
0.0
 40
0.0
 40
0.0328394650076661
 40
0.0655975995954632
 40
0.102266444783379
 40
0.1389211607509185
 40
0.1782532813536918
 40
0.2177267691616956
 40
0.2177267691616956
 40
0.2177267691616956
 40
0.2177267691616956
 10
242.8125872224966
 20
-285.1150172946347
 30
0.0
 10
242.8016043308602
 20
-285.1141571398222
 30
0.0
 10
242.7796657478839
 20
-285.1124389604619
 30
0.0
 10
242.7479526788326
 20
-285.098680692549
 30
0.0
 10
242.718433176846
 20
-285.078908153262
 30
0.0
 10
242.6923237046336
 20
-285.0515117673975
 30
0.0
 10
242.6738528067594
 20
-285.0166361689102
 30
0.0
 10
242.6715390486461
 20
-284.9902473659056
 30
0.0
 10
242.6703800942961
 20
-284.9770292953306
 30
0.0
 11
242.8125872224966
 21
-285.1150172946347
 31
0.0
 11
242.780038690594
 21
-285.1106556971091
 31
0.0
 11
242.7496573940016
 21
-285.0984053012363
 31
0.0
 11
242.7192821053619
 21
-285.0778639758782
 31
0.0
 11
242.6942135434234
 21
-285.051121960154
 31
0.0
 11
242.676439512903
 21
-285.0160349319217
 31
0.0
 11
242.6703800942961
 21
-284.9770292953306
 31
0.0
  0
SPLINE
  5
124
330
33
100
AcDbEntity
  8
1
  6
Continuous
 62
     3
100
AcDbSpline
210
0.0
220
0.0
230
1.0
 70
     8
 71
     3
 72
    13
 73
     9
 74
     7
 42
0.0000000001
 43
0.0000000001
 44
0.00000001
 40
0.0
 40
0.0
 40
0.0
 40
0.0
 40
0.1486423989491539
 40
0.2982382234609086
 40
0.4390496453788023
 40
0.5790300758313724
 40
0.7141201510150198
 40
0.8476890380270788
 40
0.8476890380270788
 40
0.8476890380270788
 40
0.8476890380270788
 10
242.4346511465728
 20
-285.5943725474504
 30
0.0
 10
242.3850183607892
 20
-285.5915239000785
 30
0.0
 10
242.2854344334431
 20
-285.585808333474
 30
0.0
 10
242.1446298050551
 20
-285.5413060948891
 30
0.0
 10
242.0165711244863
 20
-285.4743814547862
 30
0.0
 10
241.9132971567514
 20
-285.3796489022539
 30
0.0
 10
241.841894588656
 20
-285.2593322112176
 30
0.0
 10
241.8314452172145
 20
-285.1695403108527
 30
0.0
 10
241.8262501144641
 20
-285.1248985684129
 30
0.0
 11
242.4346511465728
 21
-285.5943725474504
 31
0.0
 11
242.2867309980247
 21
-285.5797372333487
 31
0.0
 11
242.1435973832558
 21
-285.5362437966652
 31
0.0
 11
242.0197993113767
 21
-285.4691476422183
 31
0.0
 11
241.9173251037489
 21
-285.3737874949829
 31
0.0
 11
241.8508559154775
 21
-285.2561814771792
 31
0.0
 11
241.8262501144641
 21
-285.1248985684129
 31
0.0
  0
SPLINE
  5
125
330
33
100
AcDbEntity
  8
1
  6
Continuous
 62
     3
100
AcDbSpline
210
0.0
220
0.0
230
1.0
 70
     8
 71
     3
 72
    13
 73
     9
 74
     7
 42
0.0000000001
 43
0.0000000001
 44
0.00000001
 40
0.0
 40
0.0
 40
0.0
 40
0.0
 40
0.0328394650076812
 40
0.0655975995954783
 40
0.102266444783426
 40
0.1389211607509239
 40
0.1782532813536973
 40
0.2177267691617011
 40
0.2177267691617011
 40
0.2177267691617011
 40
0.2177267691617011
 10
242.8125872224966
 20
-283.8557078848873
 30
0.0
 10
242.8016043308601
 20
-283.8565680396998
 30
0.0
 10
242.7796657478839
 20
-283.8582862190602
 30
0.0
 10
242.7479526788326
 20
-283.8720444869731
 30
0.0
 10
242.7184331768461
 20
-283.8918170262602
 30
0.0
 10
242.6923237046336
 20
-283.9192134121246
 30
0.0
 10
242.6738528067595
 20
-283.9540890106119
 30
0.0
 10
242.6715390486461
 20
-283.9804778136166
 30
0.0
 10
242.6703800942961
 20
-283.9936958841915
 30
0.0
 11
242.8125872224966
 21
-283.8557078848873
 31
0.0
 11
242.780038690594
 21
-283.8600694824131
 31
0.0
 11
242.7496573940016
 21
-283.8723198782858
 31
0.0
 11
242.7192821053619
 21
-283.892861203644
 31
0.0
 11
242.6942135434234
 21
-283.9196032193681
 31
0.0
 11
242.676439512903
 21
-283.9546902476004
 31
0.0
 11
242.6703800942961
 21
-283.9936958841915
 31
0.0
  0
SPLINE
  5
126
330
33
100
AcDbEntity
  8
1
  6
Continuous
 62
     3
100
AcDbSpline
210
0.0
220
0.0
230
1.0
 70
     8
 71
     3
 72
    13
 73
     9
 74
     7
 42
0.0000000001
 43
0.0000000001
 44
0.00000001
 40
0.0
 40
0.0
 40
0.0
 40
0.0
 40
0.1486423989490973
 40
0.2982382234607432
 40
0.4390496453786119
 40
0.5790300758312653
 40
0.7141201510148847
 40
0.8476890380269491
 40
0.8476890380269491
 40
0.8476890380269491
 40
0.8476890380269491
 10
244.4116899787379
 20
-285.5943725474504
 30
0.0
 10
244.4613227645215
 20
-285.5915239000786
 30
0.0
 10
244.5609066918675
 20
-285.585808333474
 30
0.0
 10
244.7017113202554
 20
-285.5413060948891
 30
0.0
 10
244.8297700008243
 20
-285.4743814547861
 30
0.0
 10
244.9330439685593
 20
-285.3796489022539
 30
0.0
 10
245.0044465366547
 20
-285.2593322112177
 30
0.0
 10
245.0148959080962
 20
-285.1695403108527
 30
0.0
 10
245.0200910108465
 20
-285.1248985684129
 30
0.0
 11
244.4116899787379
 21
-285.5943725474504
 31
0.0
 11
244.559610127286
 21
-285.5797372333487
 31
0.0
 11
244.7027437420548
 21
-285.5362437966652
 31
0.0
 11
244.8265418139338
 21
-285.4691476422183
 31
0.0
 11
244.9290160215617
 21
-285.3737874949829
 31
0.0
 11
244.995485209833
 21
-285.2561814771792
 31
0.0
 11
245.0200910108465
 21
-285.1248985684129
 31
0.0
  0
SPLINE
  5
127
330
33
100
AcDbEntity
  8
1
  6
Continuous
 62
     3
100
AcDbSpline
210
0.0
220
0.0
230
1.0
 70
     8
 71
     3
 72
    13
 73
     9
 74
     7
 42
0.0000000001
 43
0.0000000001
 44
0.00000001
 40
0.0
 40
0.0
 40
0.0
 40
0.0
 40
0.1486423989490973
 40
0.2982382234607432
 40
0.4390496453785848
 40
0.5790300758313156
 40
0.7141201510148361
 40
0.8476890380269563
 40
0.8476890380269563
 40
0.8476890380269563
 40
0.8476890380269563
 10
244.4116899787379
 20
-283.4159661997668
 30
0.0
 10
244.4613227645215
 20
-283.4188148471387
 30
0.0
 10
244.5609066918675
 20
-283.4245304137432
 30
0.0
 10
244.7017113202554
 20
-283.4690326523281
 30
0.0
 10
244.8297700008243
 20
-283.535957292431
 30
0.0
 10
244.9330439685593
 20
-283.6306898449633
 30
0.0
 10
245.0044465366546
 20
-283.7510065359995
 30
0.0
 10
245.0148959080961
 20
-283.8407984363645
 30
0.0
 10
245.0200910108465
 20
-283.8854401788043
 30
0.0
 11
244.4116899787379
 21
-283.4159661997668
 31
0.0
 11
244.559610127286
 21
-283.4306015138685
 31
0.0
 11
244.7027437420548
 21
-283.4740949505519
 31
0.0
 11
244.8265418139338
 21
-283.5411911049989
 31
0.0
 11
244.9290160215617
 21
-283.6365512522343
 31
0.0
 11
244.995485209833
 21
-283.754157270038
 31
0.0
 11
245.0200910108465
 21
-283.8854401788043
 31
0.0
  0
SPLINE
  5
128
330
33
100
AcDbEntity
  8
1
  6
Continuous
 62
     3
100
AcDbSpline
210
0.0
220
0.0
230
1.0
 70
     8
 71
     3
 72
    13
 73
     9
 74
     7
 42
0.0000000001
 43
0.0000000001
 44
0.00000001
 40
0.0
 40
0.0
 40
0.0
 40
0.0
 40
0.1486423989491539
 40
0.2982382234609086
 40
0.4390496453787752
 40
0.5790300758314227
 40
0.7141201510149712
 40
0.8476890380270861
 40
0.8476890380270861
 40
0.8476890380270861
 40
0.8476890380270861
 10
242.4346511465728
 20
-283.4159661997668
 30
0.0
 10
242.3850183607892
 20
-283.4188148471387
 30
0.0
 10
242.2854344334432
 20
-283.4245304137432
 30
0.0
 10
242.1446298050551
 20
-283.4690326523279
 30
0.0
 10
242.0165711244863
 20
-283.5359572924311
 30
0.0
 10
241.9132971567514
 20
-283.6306898449633
 30
0.0
 10
241.8418945886559
 20
-283.7510065359995
 30
0.0
 10
241.8314452172144
 20
-283.8407984363645
 30
0.0
 10
241.8262501144641
 20
-283.8854401788043
 30
0.0
 11
242.4346511465728
 21
-283.4159661997668
 31
0.0
 11
242.2867309980247
 21
-283.4306015138685
 31
0.0
 11
242.1435973832558
 21
-283.4740949505519
 31
0.0
 11
242.0197993113767
 21
-283.5411911049989
 31
0.0
 11
241.9173251037489
 21
-283.6365512522343
 31
0.0
 11
241.8508559154775
 21
-283.754157270038
 31
0.0
 11
241.8262501144641
 21
-283.8854401788043
 31
0.0
  0
SPLINE
  5
129
330
33
100
AcDbEntity
  8
1
  6
Continuous
 62
     3
100
AcDbSpline
210
0.0
220
0.0
230
1.0
 70
     8
 71
     3
 72
    13
 73
     9
 74
     7
 42
0.0000000001
 43
0.0000000001
 44
0.00000001
 40
0.0
 40
0.0
 40
0.0
 40
0.0
 40
0.1601947109558125
 40
0.3210951627355488
 40
0.4607710778824038
 40
0.6002079329853898
 40
0.7244156662362358
 40
0.8468166043872336
 40
0.8468166043872336
 40
0.8468166043872336
 40
0.8468166043872336
 10
257.2356595162888
 20
-282.6313537122063
 30
0.0
 10
257.2891637559471
 20
-282.634594678369
 30
0.0
 10
257.3964079492019
 20
-282.6410908888322
 30
0.0
 10
257.5433058469653
 20
-282.6918863072826
 30
0.0
 10
257.6702658100063
 20
-282.76764626943
 30
0.0
 10
257.7651349261199
 20
-282.8646270000834
 30
0.0
 10
257.8305701643598
 20
-282.9788338014887
 30
0.0
 10
257.8401426280802
 20
-283.0612372293067
 30
0.0
 10
257.8448937932893
 20
-283.1021370760739
 30
0.0
 11
257.2356595162888
 21
-282.6313537122063
 31
0.0
 11
257.3949585347668
 21
-282.6482702168742
 31
0.0
 11
257.5474650452445
 21
-282.6995607583494
 31
0.0
 11
257.6666080806276
 21
-282.7724599928573
 31
0.0
 11
257.7638706471437
 21
-282.8723731036871
 31
0.0
 11
257.8227009158226
 21
-282.9817648789103
 31
0.0
 11
257.8448937932893
 21
-283.1021370760739
 31
0.0
  0
SPLINE
  5
12A
330
33
100
AcDbEntity
  8
1
  6
Continuous
 62
     3
100
AcDbSpline
210
0.0
220
0.0
230
1.0
 70
     8
 71
     3
 72
    13
 73
     9
 74
     7
 42
0.0000000001
 43
0.0000000001
 44
0.00000001
 40
0.0
 40
0.0
 40
0.0
 40
0.0
 40
0.1601947109558125
 40
0.3210951627355488
 40
0.4607710778824038
 40
0.600207932985349
 40
0.7244156662362952
 40
0.8468166043871812
 40
0.8468166043871812
 40
0.8468166043871812
 40
0.8468166043871812
 10
257.2356595162888
 20
-286.3789850350108
 30
0.0
 10
257.2891637559471
 20
-286.375744068848
 30
0.0
 10
257.3964079492019
 20
-286.369247858385
 30
0.0
 10
257.5433058469652
 20
-286.3184524399346
 30
0.0
 10
257.6702658100062
 20
-286.242692477787
 30
0.0
 10
257.7651349261201
 20
-286.1457117471338
 30
0.0
 10
257.8305701643597
 20
-286.0315049457284
 30
0.0
 10
257.8401426280803
 20
-285.9491015179104
 30
0.0
 10
257.8448937932893
 20
-285.9082016711433
 30
0.0
 11
257.2356595162888
 21
-286.3789850350108
 31
0.0
 11
257.3949585347668
 21
-286.362068530343
 31
0.0
 11
257.5474650452445
 21
-286.3107779888677
 31
0.0
 11
257.6666080806276
 21
-286.2378787543599
 31
0.0
 11
257.7638706471437
 21
-286.1379656435301
 31
0.0
 11
257.8227009158226
 21
-286.0285738683068
 31
0.0
 11
257.8448937932893
 21
-285.9082016711433
 31
0.0
  0
SPLINE
  5
12B
330
33
100
AcDbEntity
  8
1
  6
Continuous
 62
     3
100
AcDbSpline
210
0.0
220
0.0
230
1.0
 70
     8
 71
     3
 72
    13
 73
     9
 74
     7
 42
0.0000000001
 43
0.0000000001
 44
0.00000001
 40
0.0
 40
0.0
 40
0.0
 40
0.0
 40
0.1601947109558407
 40
0.3210951627355502
 40
0.4607710778823325
 40
0.6002079329853173
 40
0.7244156662363037
 40
0.8468166043871794
 40
0.8468166043871794
 40
0.8468166043871794
 40
0.8468166043871794
 10
240.7495257748353
 20
-286.3789850350108
 30
0.0
 10
240.696021535177
 20
-286.3757440688481
 30
0.0
 10
240.5887773419223
 20
-286.3692478583851
 30
0.0
 10
240.4418794441588
 20
-286.3184524399345
 30
0.0
 10
240.314919481118
 20
-286.2426924777871
 30
0.0
 10
240.2200503650041
 20
-286.1457117471338
 30
0.0
 10
240.1546151267643
 20
-286.0315049457284
 30
0.0
 10
240.1450426630438
 20
-285.9491015179104
 30
0.0
 10
240.1402914978348
 20
-285.9082016711433
 30
0.0
 11
240.7495257748353
 21
-286.3789850350108
 31
0.0
 11
240.5902267563573
 21
-286.362068530343
 31
0.0
 11
240.4377202458796
 21
-286.3107779888677
 31
0.0
 11
240.3185772104966
 21
-286.2378787543599
 31
0.0
 11
240.2213146439804
 21
-286.1379656435301
 31
0.0
 11
240.1624843753015
 21
-286.0285738683068
 31
0.0
 11
240.1402914978348
 21
-285.9082016711433
 31
0.0
  0
SPLINE
  5
12C
330
33
100
AcDbEntity
  8
1
  6
Continuous
 62
     3
100
AcDbSpline
210
0.0
220
0.0
230
1.0
 70
     8
 71
     3
 72
    13
 73
     9
 74
     7
 42
0.0000000001
 43
0.0000000001
 44
0.00000001
 40
0.0
 40
0.0
 40
0.0
 40
0.0
 40
0.1601947109558407
 40
0.3210951627355502
 40
0.4607710778823325
 40
0.600207932985358
 40
0.7244156662362444
 40
0.8468166043872319
 40
0.8468166043872319
 40
0.8468166043872319
 40
0.8468166043872319
 10
240.7495257748353
 20
-282.6313537122063
 30
0.0
 10
240.696021535177
 20
-282.6345946783691
 30
0.0
 10
240.5887773419223
 20
-282.6410908888323
 30
0.0
 10
240.4418794441588
 20
-282.6918863072825
 30
0.0
 10
240.3149194811179
 20
-282.7676462694301
 30
0.0
 10
240.2200503650042
 20
-282.8646270000834
 30
0.0
 10
240.1546151267642
 20
-282.9788338014885
 30
0.0
 10
240.1450426630438
 20
-283.0612372293067
 30
0.0
 10
240.1402914978348
 20
-283.1021370760739
 30
0.0
 11
240.7495257748353
 21
-282.6313537122063
 31
0.0
 11
240.5902267563573
 21
-282.6482702168742
 31
0.0
 11
240.4377202458796
 21
-282.6995607583494
 31
0.0
 11
240.3185772104966
 21
-282.7724599928573
 31
0.0
 11
240.2213146439804
 21
-282.8723731036871
 31
0.0
 11
240.1624843753015
 21
-282.9817648789103
 31
0.0
 11
240.1402914978348
 21
-283.1021370760739
 31
0.0
  0
TEXT
  5
12E
330
33
100
AcDbEntity
  8
1
 62
     3
100
AcDbText
 10
266.2912249064632
 20
-299.8054723303222
 30
0.0
 40
1.798828
  1
Blatt / von
 41
0.99
  7
CONVERTER_11
100
AcDbText
  0
TEXT
  5
12F
330
33
100
AcDbEntity
  8
0
 62
     3
100
AcDbText
 10
151.4778860884162
 20
-305.1597844212137
 30
0.0
 40
1.7
  1
Vers.  Datum   Name   Mitt.Nr.
 41
0.99
  7
CONVERTER_11
100
AcDbText
  0
MTEXT
  5
130
330
33
100
AcDbEntity
  8
0
 62
     3
100
AcDbMText
 10
259.7266705482128
 20
-294.2702985654722
 30
0.0
 40
1.74155141925716
 41
0.0
 71
     7
 72
     1
  1
P.O. Box 13 63\P71226 Leonberg\PGermany
  7
CONVERTER_11
 73
     1
 44
1.02040816326531
  0
MTEXT
  5
132
330
33
100
AcDbEntity
  8
0
 62
     4
100
AcDbMText
 10
259.726670548213
 20
-284.8888228366979
 30
0.0
 40
2.22374007748728
 41
0.0
 71
     7
 72
     1
  1
GEZE GmbH
  7
CONVERTER_12
 73
     1
 44
0.60024009603842
  0
MTEXT
  5
133
330
33
100
AcDbEntity
  8
0
 62
     3
100
AcDbMText
 10
202.4097042702344
 20
-287.905336015713
 30
0.0
 40
1.74155141925716
 41
0.0
 71
     7
 72
     1
  1
Bearb.
  7
CONVERTER_11
 73
     1
 44
0.60024009603842
  0
MTEXT
  5
134
330
33
100
AcDbEntity
  8
0
 62
     3
100
AcDbMText
 10
202.4097042702344
 20
-292.2307821028484
 30
0.0
 40
1.74155141925716
 41
0.0
 71
     7
 72
     1
  1
Freig.:
  7
CONVERTER_11
 73
     1
 44
0.60024009603842
  0
MTEXT
  5
135
330
33
100
AcDbEntity
  8
0
 62
     3
100
AcDbMText
 10
202.4097042702344
 20
-296.5562281899837
 30
0.0
 40
1.74155141925716
 41
0.0
 71
     7
 72
     1
  1
Norm
  7
CONVERTER_11
 73
     1
 44
0.60024009603842
  0
MTEXT
  5
136
330
33
100
AcDbEntity
  8
0
 62
     3
100
AcDbMText
 10
213.4983350429617
 20
-283.4793072825425
 30
0.0
 40
1.74155141925716
 41
0.0
 71
     7
 72
     1
  1
Datum    Name
  7
CONVERTER_11
 73
     1
 44
0.60024009603842
  0
MTEXT
  5
138
330
33
100
AcDbEntity
  8
1
 62
     3
100
AcDbMText
 10
291.4778860884163
 20
-256.8359141674265
 30
0.0
 40
1.798828
 41
0.0
 71
     7
 72
     1
  1
Maße ohne Toleranzangabe\Pnach DIN ISO 2768 T1 mittel\P........................\P..........DIN.............
  7
CONVERTER_13
 73
     1
 44
0.90036014405762
  0
TEXT
  5
139
330
33
100
AcDbEntity
  8
0
 62
     3
100
AcDbText
 10
202.4778860884162
 20
-265.1597844212137
 30
0.0
 40
1.6
  1
Ersatz für:
 41
0.99
  7
CONVERTER_11
100
AcDbText
  0
TEXT
  5
13A
330
33
100
AcDbEntity
  8
0
 62
     3
100
AcDbText
 10
202.4778860884162
 20
-273.7597844212137
 30
0.0
 40
1.6
  1
Ersetzt durch:
 41
0.99
  7
CONVERTER_11
100
AcDbText
  0
TEXT
  5
13B
330
33
100
AcDbEntity
  8
0
 62
     3
100
AcDbText
 10
247.4778860884162
 20
-249.0567952496752
 30
0.0
 40
1.798828
  1
Wärmebehandlung
 41
0.99
  7
CONVERTER_11
100
AcDbText
  0
TEXT
  5
13C
330
33
100
AcDbEntity
  8
0
 62
     3
100
AcDbText
 10
202.0778310884162
 20
-249.0526154847269
 30
0.0
 40
1.798828
  1
Oberfl.Behandlung
 41
0.99
  7
CONVERTER_11
100
AcDbText
  0
TEXT
  5
13D
330
33
100
AcDbEntity
  8
0
 62
     3
100
AcDbText
 10
151.2778430884162
 20
-249.0597784212137
 30
0.0
 40
1.798828
  1
Werkstoff/Rohteil
 41
0.99
  7
CONVERTER_11
100
AcDbText
  0
TEXT
  5
13E
330
33
100
AcDbEntity
  8
0
 62
     3
100
AcDbText
 10
246.2778430884161
 20
-266.0597784212137
 30
0.0
 40
1.798828
  1
Benennung
 41
0.99
  7
CONVERTER_11
100
AcDbText
  0
TEXT
  5
13F
330
33
100
AcDbEntity
  8
0
 62
     3
100
AcDbText
 10
202.4778860884162
 20
-300.1597844212137
 30
0.0
 40
1.798828
  1
Maßstab
 41
0.99
  7
CONVERTER_11
100
AcDbText
  0
TEXT
  5
140
330
33
100
AcDbEntity
  8
0
 62
     3
100
AcDbText
 10
235.4778860884162
 20
-300.1597844212137
 30
0.0
 40
1.798828
  1
alte techn.Nr.
 41
0.99
  7
CONVERTER_11
100
AcDbText
  0
TEXT
  5
141
330
33
100
AcDbEntity
  8
0
 62
     3
100
AcDbText
 10
284.4778860884162
 20
-296.1597844212137
 30
0.0
 40
1.798828
  1
Zeichnungs Nr.
 41
0.99
  7
CONVERTER_11
100
AcDbText
  0
TEXT
  5
142
330
33
100
AcDbEntity
  8
0
 62
     3
100
AcDbText
 10
284.4778860884162
 20
-283.1597844212137
 30
0.0
 40
1.798828
  1
Material Nr.
 41
0.99
  7
CONVERTER_11
100
AcDbText
  0
MTEXT
  5
144
330
33
100
AcDbEntity
  8
1
 62
     1
100
AcDbMText
 10
308.4778860884162
 20
-300.7742653354858
 30
0.0
 40
5.0
 41
0.0
 71
     5
 72
     1
  1
20301-0-1
  7
CONVERTER_14
 73
     1
 44
1.02040816326531
  0
MTEXT
  5
145
330
33
100
AcDbEntity
  8
1
 62
     1
100
AcDbMText
 10
308.4778860884162
 20
-287.6496332391555
 30
0.0
 40
5.0
 41
0.0
 71
     5
 72
     1
  1
 
  7
CONVERTER_13
 73
     1
 44
1.02040816326531
  0
MTEXT
  5
146
330
33
100
AcDbEntity
  8
1
 62
     1
100
AcDbMText
 10
289.4778860884162
 20
-269.7205468773715
 30
0.0
 40
4.5
 41
0.0
 71
     5
 72
     1
  1
Tuerschiene DB mit TS 550
  7
CONVERTER_14
 73
     1
 44
1.02040816326531
  0
MTEXT
  5
147
330
33
100
AcDbEntity
  8
1
 62
     4
100
AcDbMText
 10
289.4778860884162
 20
-276.6088134822652
 30
0.0
 40
3.5
 41
0.0
 71
     5
 72
     1
  1
 
  7
CONVERTER_14
 73
     1
 44
1.02040816326531
  0
MTEXT
  5
148
330
33
100
AcDbEntity
  8
1
 62
     1
100
AcDbMText
 10
219.8322382283792
 20
-301.8485341138107
 30
0.0
 40
5.0
 41
0.0
 71
     5
 72
     1
  1
1:1
  7
CONVERTER_13
 73
     1
 44
1.02040816326531
  0
MTEXT
  5
14A
330
33
100
AcDbEntity
  8
1
 62
     3
100
AcDbMText
 10
219.6017469293253
 20
-286.3461692033753
 30
0.0
 40
2.5
 41
0.0
 71
     5
 72
     1
  1
26.09.2002
  7
CONVERTER_15
 73
     1
 44
1.02040816326531
  0
MTEXT
  5
14B
330
33
100
AcDbEntity
  8
1
 62
     3
100
AcDbMText
 10
232.6937951793253
 20
-286.3461692033753
 30
0.0
 40
2.5
 41
0.0
 71
     5
 72
     1
  1
tbm25
  7
CONVERTER_14
 73
     1
 44
1.02040816326531
  0
MTEXT
  5
14C
330
33
100
AcDbEntity
  8
1
 62
     4
100
AcDbMText
 10
269.2762501578412
 20
-303.1597844212137
 30
0.0
 40
3.5
 41
0.0
 71
     5
 72
     1
  1
1
  7
CONVERTER_13
 73
     1
 44
1.02040816326531
  0
MTEXT
  5
14D
330
33
100
AcDbEntity
  8
1
 62
     4
100
AcDbMText
 10
279.5693381884862
 20
-303.1597844212137
 30
0.0
 40
3.5
 41
0.0
 71
     5
 72
     1
  1
1
  7
CONVERTER_13
 73
     1
 44
1.02040816326531
  0
MTEXT
  5
14E
330
33
100
AcDbEntity
  8
1
 62
     3
100
AcDbMText
 10
223.3965429305772
 20
-268.2496487527372
 30
0.0
 40
2.5
 41
0.0
 71
     5
 72
     1
  1
 
  7
CONVERTER_13
 73
     1
 44
1.02040816326531
  0
MTEXT
  5
14F
330
33
100
AcDbEntity
  8
1
 62
     3
100
AcDbMText
 10
223.3965429305772
 20
-276.7496487527372
 30
0.0
 40
2.5
 41
0.0
 71
     5
 72
     1
  1
 
  7
CONVERTER_13
 73
     1
 44
1.02040816326531
  0
MTEXT
  5
150
330
33
100
AcDbEntity
  8
1
 62
     3
100
AcDbMText
 10
155.4778860884163
 20
-299.7097874212137
 30
0.0
 40
2.5
 41
0.0
 71
     5
 72
     1
  1
01
  7
CONVERTER_13
 73
     1
 44
1.02040816326531
  0
MTEXT
  5
151
330
33
100
AcDbEntity
  8
1
 62
     3
100
AcDbMText
 10
166.9778860884163
 20
-299.7097874212137
 30
0.0
 40
2.5
 41
0.0
 71
     5
 72
     1
  1
26.09.2002
  7
CONVERTER_15
 73
     1
 44
1.02040816326531
  0
MTEXT
  5
153
330
33
100
AcDbEntity
  8
1
 62
     3
100
AcDbMText
 10
178.9778860884162
 20
-299.7097874212137
 30
0.0
 40
2.5
 41
0.0
 71
     5
 72
     1
  1
tbm25
  7
CONVERTER_16
 73
     1
 44
1.02040816326531
  0
MTEXT
  5
154
330
33
100
AcDbEntity
  8
1
 62
     3
100
AcDbMText
 10
192.9778860884162
 20
-299.7097874212137
 30
0.0
 40
2.5
 41
0.0
 71
     5
 72
     1
  1
xxxxx
  7
CONVERTER_16
 73
     1
 44
1.02040816326531
  0
MTEXT
  5
155
330
33
100
AcDbEntity
  8
1
 62
     3
100
AcDbMText
 10
155.4778860884163
 20
-295.4097994212137
 30
0.0
 40
2.5
 41
0.0
 71
     5
 72
     1
  1
 
  7
CONVERTER_13
 73
     1
 44
1.02040816326531
  0
MTEXT
  5
156
330
33
100
AcDbEntity
  8
1
 62
     3
100
AcDbMText
 10
155.4778860884163
 20
-291.1098114212137
 30
0.0
 40
2.5
 41
0.0
 71
     5
 72
     1
  1
 
  7
CONVERTER_13
 73
     1
 44
1.02040816326531
  0
MTEXT
  5
157
330
33
100
AcDbEntity
  8
1
 62
     3
100
AcDbMText
 10
155.4778860884163
 20
-286.8098234212137
 30
0.0
 40
2.5
 41
0.0
 71
     5
 72
     1
  1
 
  7
CONVERTER_13
 73
     1
 44
1.02040816326531
  0
MTEXT
  5
158
330
33
100
AcDbEntity
  8
1
 62
     3
100
AcDbMText
 10
155.4778860884163
 20
-282.5098354212137
 30
0.0
 40
2.5
 41
0.0
 71
     5
 72
     1
  1
 
  7
CONVERTER_13
 73
     1
 44
1.02040816326531
  0
MTEXT
  5
159
330
33
100
AcDbEntity
  8
1
 62
     3
100
AcDbMText
 10
155.4778860884163
 20
-278.2098474212137
 30
0.0
 40
2.5
 41
0.0
 71
     5
 72
     1
  1
 
  7
CONVERTER_13
 73
     1
 44
1.02040816326531
  0
MTEXT
  5
15A
330
33
100
AcDbEntity
  8
1
 62
     3
100
AcDbMText
 10
155.4778860884163
 20
-273.9098594212137
 30
0.0
 40
2.5
 41
0.0
 71
     5
 72
     1
  1
 
  7
CONVERTER_13
 73
     1
 44
1.02040816326531
  0
MTEXT
  5
15B
330
33
100
AcDbEntity
  8
1
 62
     3
100
AcDbMText
 10
155.4778860884163
 20
-269.6098714212137
 30
0.0
 40
2.5
 41
0.0
 71
     5
 72
     1
  1
 
  7
CONVERTER_13
 73
     1
 44
1.02040816326531
  0
MTEXT
  5
15C
330
33
100
AcDbEntity
  8
1
 62
     3
100
AcDbMText
 10
155.4778860884163
 20
-265.3098834212137
 30
0.0
 40
2.5
 41
0.0
 71
     5
 72
     1
  1
 
  7
CONVERTER_13
 73
     1
 44
1.02040816326531
  0
MTEXT
  5
15D
330
33
100
AcDbEntity
  8
1
 62
     3
100
AcDbMText
 10
166.9778860884163
 20
-295.4097994212137
 30
0.0
 40
2.5
 41
0.0
 71
     5
 72
     1
  1
 
  7
CONVERTER_15
 73
     1
 44
1.02040816326531
  0
MTEXT
  5
15E
330
33
100
AcDbEntity
  8
1
 62
     3
100
AcDbMText
 10
166.9778860884163
 20
-291.1098114212137
 30
0.0
 40
2.5
 41
0.0
 71
     5
 72
     1
  1
 
  7
CONVERTER_15
 73
     1
 44
1.02040816326531
  0
MTEXT
  5
15F
330
33
100
AcDbEntity
  8
1
 62
     3
100
AcDbMText
 10
166.9778860884163
 20
-286.8098234212137
 30
0.0
 40
2.5
 41
0.0
 71
     5
 72
     1
  1
 
  7
CONVERTER_15
 73
     1
 44
1.02040816326531
  0
MTEXT
  5
160
330
33
100
AcDbEntity
  8
1
 62
     3
100
AcDbMText
 10
166.9778860884163
 20
-282.5098354212137
 30
0.0
 40
2.5
 41
0.0
 71
     5
 72
     1
  1
 
  7
CONVERTER_15
 73
     1
 44
1.02040816326531
  0
MTEXT
  5
161
330
33
100
AcDbEntity
  8
1
 62
     3
100
AcDbMText
 10
166.9778860884163
 20
-278.2098474212137
 30
0.0
 40
2.5
 41
0.0
 71
     5
 72
     1
  1
 
  7
CONVERTER_15
 73
     1
 44
1.02040816326531
  0
MTEXT
  5
162
330
33
100
AcDbEntity
  8
1
 62
     3
100
AcDbMText
 10
166.9778860884163
 20
-273.9098594212137
 30
0.0
 40
2.5
 41
0.0
 71
     5
 72
     1
  1
 
  7
CONVERTER_15
 73
     1
 44
1.02040816326531
  0
MTEXT
  5
163
330
33
100
AcDbEntity
  8
1
 62
     3
100
AcDbMText
 10
166.9778860884163
 20
-269.6098714212137
 30
0.0
 40
2.5
 41
0.0
 71
     5
 72
     1
  1
 
  7
CONVERTER_15
 73
     1
 44
1.02040816326531
  0
MTEXT
  5
164
330
33
100
AcDbEntity
  8
1
 62
     3
100
AcDbMText
 10
166.9778860884163
 20
-265.3098834212137
 30
0.0
 40
2.5
 41
0.0
 71
     5
 72
     1
  1
 
  7
CONVERTER_15
 73
     1
 44
1.02040816326531
  0
MTEXT
  5
165
330
33
100
AcDbEntity
  8
1
 62
     3
100
AcDbMText
 10
178.9778860884162
 20
-295.4097994212137
 30
0.0
 40
2.5
 41
0.0
 71
     5
 72
     1
  1
 
  7
CONVERTER_16
 73
     1
 44
1.02040816326531
  0
MTEXT
  5
166
330
33
100
AcDbEntity
  8
1
 62
     3
100
AcDbMText
 10
178.9778860884162
 20
-291.1098114212137
 30
0.0
 40
2.5
 41
0.0
 71
     5
 72
     1
  1
 
  7
CONVERTER_16
 73
     1
 44
1.02040816326531
  0
MTEXT
  5
167
330
33
100
AcDbEntity
  8
1
 62
     3
100
AcDbMText
 10
178.9778860884162
 20
-286.8098234212137
 30
0.0
 40
2.5
 41
0.0
 71
     5
 72
     1
  1
 
  7
CONVERTER_16
 73
     1
 44
1.02040816326531
  0
MTEXT
  5
168
330
33
100
AcDbEntity
  8
1
 62
     3
100
AcDbMText
 10
178.9778860884162
 20
-282.5098354212137
 30
0.0
 40
2.5
 41
0.0
 71
     5
 72
     1
  1
 
  7
CONVERTER_16
 73
     1
 44
1.02040816326531
  0
MTEXT
  5
169
330
33
100
AcDbEntity
  8
1
 62
     3
100
AcDbMText
 10
178.9778860884162
 20
-278.2098474212137
 30
0.0
 40
2.5
 41
0.0
 71
     5
 72
     1
  1
 
  7
CONVERTER_16
 73
     1
 44
1.02040816326531
  0
MTEXT
  5
16A
330
33
100
AcDbEntity
  8
1
 62
     3
100
AcDbMText
 10
178.9778860884162
 20
-273.9098594212137
 30
0.0
 40
2.5
 41
0.0
 71
     5
 72
     1
  1
 
  7
CONVERTER_16
 73
     1
 44
1.02040816326531
  0
MTEXT
  5
16B
330
33
100
AcDbEntity
  8
1
 62
     3
100
AcDbMText
 10
178.9778860884162
 20
-269.6098714212137
 30
0.0
 40
2.5
 41
0.0
 71
     5
 72
     1
  1
 
  7
CONVERTER_16
 73
     1
 44
1.02040816326531
  0
MTEXT
  5
16C
330
33
100
AcDbEntity
  8
1
 62
     3
100
AcDbMText
 10
178.9778860884162
 20
-265.3098834212137
 30
0.0
 40
2.5
 41
0.0
 71
     5
 72
     1
  1
 
  7
CONVERTER_16
 73
     1
 44
1.02040816326531
  0
MTEXT
  5
16D
330
33
100
AcDbEntity
  8
1
 62
     3
100
AcDbMText
 10
192.9778860884162
 20
-295.4097994212137
 30
0.0
 40
2.5
 41
0.0
 71
     5
 72
     1
  1
 
  7
CONVERTER_16
 73
     1
 44
1.02040816326531
  0
MTEXT
  5
16E
330
33
100
AcDbEntity
  8
1
 62
     3
100
AcDbMText
 10
192.9778860884162
 20
-291.1098114212137
 30
0.0
 40
2.5
 41
0.0
 71
     5
 72
     1
  1
 
  7
CONVERTER_16
 73
     1
 44
1.02040816326531
  0
MTEXT
  5
16F
330
33
100
AcDbEntity
  8
1
 62
     3
100
AcDbMText
 10
192.9778860884162
 20
-286.8098234212137
 30
0.0
 40
2.5
 41
0.0
 71
     5
 72
     1
  1
 
  7
CONVERTER_16
 73
     1
 44
1.02040816326531
  0
MTEXT
  5
170
330
33
100
AcDbEntity
  8
1
 62
     3
100
AcDbMText
 10
192.9778860884162
 20
-282.5098354212137
 30
0.0
 40
2.5
 41
0.0
 71
     5
 72
     1
  1
 
  7
CONVERTER_16
 73
     1
 44
1.02040816326531
  0
MTEXT
  5
171
330
33
100
AcDbEntity
  8
1
 62
     3
100
AcDbMText
 10
192.9778860884162
 20
-278.2098474212137
 30
0.0
 40
2.5
 41
0.0
 71
     5
 72
     1
  1
 
  7
CONVERTER_16
 73
     1
 44
1.02040816326531
  0
MTEXT
  5
172
330
33
100
AcDbEntity
  8
1
 62
     3
100
AcDbMText
 10
192.9778860884162
 20
-273.9098594212137
 30
0.0
 40
2.5
 41
0.0
 71
     5
 72
     1
  1
 
  7
CONVERTER_16
 73
     1
 44
1.02040816326531
  0
MTEXT
  5
173
330
33
100
AcDbEntity
  8
1
 62
     3
100
AcDbMText
 10
192.9778860884162
 20
-269.6098714212137
 30
0.0
 40
2.5
 41
0.0
 71
     5
 72
     1
  1
 
  7
CONVERTER_16
 73
     1
 44
1.02040816326531
  0
MTEXT
  5
174
330
33
100
AcDbEntity
  8
1
 62
     3
100
AcDbMText
 10
192.9778860884162
 20
-265.3098834212137
 30
0.0
 40
2.5
 41
0.0
 71
     5
 72
     1
  1
 
  7
CONVERTER_16
 73
     1
 44
1.02040816326531
  0
MTEXT
  5
175
330
33
100
AcDbEntity
  8
1
 62
     3
100
AcDbMText
 10
232.6937951793253
 20
-290.6716152905106
 30
0.0
 40
2.5
 41
0.0
 71
     5
 72
     1
  1
tbm2
  7
CONVERTER_14
 73
     1
 44
1.02040816326531
  0
MTEXT
  5
176
330
33
100
AcDbEntity
  8
1
 62
     3
100
AcDbMText
 10
219.6017469293253
 20
-290.6716152905106
 30
0.0
 40
2.5
 41
0.0
 71
     5
 72
     1
  1
18.09.2003
  7
CONVERTER_15
 73
     1
 44
1.02040816326531
  0
TEXT
  5
177
330
33
100
AcDbEntity
  8
0
 62
     3
100
AcDbText
 10
330.4778860884162
 20
78.8402155787863
 30
0.0
 40
1.398438
  1
F
 41
0.99
  7
CONVERTER_11
100
AcDbText
  0
TEXT
  5
178
330
33
100
AcDbEntity
  8
0
 62
     3
100
AcDbText
 10
330.4778860884162
 20
8.8402155787863
 30
0.0
 40
1.398438
  1
E
 41
0.99
  7
CONVERTER_11
100
AcDbText
  0
TEXT
  5
179
330
33
100
AcDbEntity
  8
0
 62
     3
100
AcDbText
 10
330.4778860884162
 20
-61.1597844212137
 30
0.0
 40
1.398438
  1
D
 41
0.99
  7
CONVERTER_11
100
AcDbText
  0
TEXT
  5
17A
330
33
100
AcDbEntity
  8
0
 62
     3
100
AcDbText
 10
330.4778860884162
 20
-131.1597844212137
 30
0.0
 40
1.398438
  1
C
 41
0.99
  7
CONVERTER_11
100
AcDbText
  0
TEXT
  5
17B
330
33
100
AcDbEntity
  8
0
 62
     3
100
AcDbText
 10
330.4778860884162
 20
-201.1597844212137
 30
0.0
 40
1.398438
  1
B
 41
0.99
  7
CONVERTER_11
100
AcDbText
  0
TEXT
  5
17C
330
33
100
AcDbEntity
  8
0
 62
     3
100
AcDbText
 10
-249.5221139115838
 20
71.8402155787863
 30
0.0
 40
1.798828
  1
 
 41
0.99
  7
CONVERTER_11
100
AcDbText
  0
TEXT
  5
17D
330
33
100
AcDbEntity
  8
0
 62
     3
100
AcDbText
 10
290.4778860884162
 20
99.8402155787863
 30
0.0
 40
1.798828
  1
1
 41
0.99
  7
CONVERTER_11
100
AcDbText
  0
TEXT
  5
17E
330
33
100
AcDbEntity
  8
0
 62
     3
100
AcDbText
 10
217.4778860884162
 20
99.8402155787863
 30
0.0
 40
1.798828
  1
2
 41
0.99
  7
CONVERTER_11
100
AcDbText
  0
TEXT
  5
17F
330
33
100
AcDbEntity
  8
0
 62
     3
100
AcDbText
 10
144.4778860884162
 20
99.8402155787863
 30
0.0
 40
1.798828
  1
3
 41
0.99
  7
CONVERTER_11
100
AcDbText
  0
TEXT
  5
180
330
33
100
AcDbEntity
  8
0
 62
     3
100
AcDbText
 10
71.47788608841618
 20
99.8402155787863
 30
0.0
 40
1.798828
  1
4
 41
0.99
  7
CONVERTER_11
100
AcDbText
  0
TEXT
  5
181
330
33
100
AcDbEntity
  8
0
 62
     3
100
AcDbText
 10
-1.52211391158382
 20
99.8402155787863
 30
0.0
 40
1.798828
  1
5
 41
0.99
  7
CONVERTER_11
100
AcDbText
  0
TEXT
  5
182
330
33
100
AcDbEntity
  8
0
 62
     3
100
AcDbText
 10
-69.5221139115838
 20
99.8402155787863
 30
0.0
 40
1.798828
  1
6
 41
0.99
  7
CONVERTER_11
100
AcDbText
  0
TEXT
  5
183
330
33
100
AcDbEntity
  8
0
 62
     3
100
AcDbText
 10
-142.5221139115838
 20
99.8402155787863
 30
0.0
 40
1.798828
  1
7
 41
0.99
  7
CONVERTER_11
100
AcDbText
  0
TEXT
  5
184
330
33
100
AcDbEntity
  8
0
 62
     3
100
AcDbText
 10
-215.5221139115838
 20
99.8402155787863
 30
0.0
 40
1.798828
  1
8
 41
0.99
  7
CONVERTER_11
100
AcDbText
  0
TEXT
  5
185
330
33
100
AcDbEntity
  8
0
 62
     3
100
AcDbText
 10
61.47788608841618
 20
-286.4097844212137
 30
0.0
 40
1.298828
  1
bis 6  6-30 30-120  120-400 400-1000
 50
-0.00000000000001
 41
0.99
  7
CONVERTER_11
100
AcDbText
  0
TEXT
  5
186
330
33
100
AcDbEntity
  8
0
 62
     3
100
AcDbText
 10
61.47788608841618
 20
-290.4097844212136
 30
0.0
 40
1.298828
  1
0,1    0,2    0,3      0,5       0,8
 50
-0.00000000000001
 41
0.99
  7
CONVERTER_11
100
AcDbText
  0
TEXT
  5
187
330
33
100
AcDbEntity
  8
0
 62
     3
100
AcDbText
 10
61.47788608841618
 20
-279.4097844212137
 30
0.0
 40
1.298828
  1
Längenmaße, Rundungen
 50
-0.00000000000001
 41
0.99
  7
CONVERTER_11
100
AcDbText
  0
TEXT
  5
188
330
33
100
AcDbEntity
  8
0
 62
     3
100
AcDbText
 10
61.47788608841618
 20
-282.4097844212137
 30
0.0
 40
1.298828
  1
+ - Toleranz DIN ISO 2768 T1 mittel
 50
-0.00000000000001
 41
0.99
  7
CONVERTER_11
100
AcDbText
  0
TEXT
  5
189
330
33
100
AcDbEntity
  8
0
 62
     3
100
AcDbText
 10
108.7278860884162
 20
-286.4097844212137
 30
0.0
 40
1.298828
  1
bis 10   10-50     50-120   üb. 120
 50
-0.00000000000001
 41
0.99
  7
CONVERTER_11
100
AcDbText
  0
TEXT
  5
18A
330
33
100
AcDbEntity
  8
0
 62
     3
100
AcDbText
 10
108.7278860884162
 20
-290.4097844212137
 30
0.0
 40
1.298828
  1
1        30        20       10
 50
-0.00000000000001
 41
0.99
  7
CONVERTER_11
100
AcDbText
  0
TEXT
  5
18B
330
33
100
AcDbEntity
  8
0
 62
     3
100
AcDbText
 10
108.7278860884162
 20
-279.4097844212137
 30
0.0
 40
1.298828
  1
+ - Winkeltoleranz
 50
-0.00000000000001
 41
0.99
  7
CONVERTER_11
100
AcDbText
  0
TEXT
  5
18C
330
33
100
AcDbEntity
  8
0
 62
     3
100
AcDbText
 10
108.7278860884162
 20
-282.4097844212137
 30
0.0
 40
1.298828
  1
(Länge d. kürzeren Schenkels)
 50
-0.00000000000001
 41
0.99
  7
CONVERTER_11
100
AcDbText
  0
MTEXT
  5
18D
330
33
100
AcDbEntity
  8
0
 62
     3
100
AcDbMText
 10
-249.0385047120821
 20
-305.0795212925906
 30
0.0
 40
1.5
 41
0.0
 71
     7
 72
     1
  3
Diese Zeichnung entspricht dem Entwicklungsstand des Zeichnungs-\Pdatums bzw. der letzten Änderungseintragung.Aus der Benützung der\PZeichnung können keine Ansprüche, gleich welcher Art, einschließ-\Plich Schadenersatzansprüche, abgeleitet und gegen 
  3
GEZE geltend ge-\Pmacht werden. Die Zeichnung bleibt unser Eigentum und ist Dritten\Pnur für die Vertragsdauer zur Benützung überlassen.Sämtliche sich\Paus der Zeichnung ergebenden Ansprüche stehen ausschließlich GEZE\Pzu.Ohne vorherige Zustimmung vo
  1
n GEZE darf diese Zeichnung weder\Pvervielfältigt noch Dritten zugänglich gemacht werden.
  7
CONVERTER_13
 73
     1
 44
0.84033613445378
  0
TEXT
  5
18E
330
33
100
AcDbEntity
  8
0
 62
     3
100
AcDbText
 10
93.47788608841618
 20
-301.4097844212137
 30
0.0
 40
1.5
  1
 bis 6   6-30   30-120  120-400  400-1000
 50
-0.00000000000001
 41
0.99
  7
CONVERTER_11
100
AcDbText
  0
TEXT
  5
18F
330
33
100
AcDbEntity
  8
0
 62
     3
100
AcDbText
 10
93.47788608841618
 20
-305.1597844212137
 30
0.0
 40
1.5
  1
 0,05     0,1    0,15     0,25     0,4
 50
-0.00000000000001
 41
0.99
  7
CONVERTER_11
100
AcDbText
  0
TEXT
  5
190
330
33
100
AcDbEntity
  8
0
 62
     3
100
AcDbText
 10
93.47788608841618
 20
-298.0347844212137
 30
0.0
 40
1.5
  1
für Maße ohne Toleranzangabe (+ -)
 50
-0.00000000000001
 41
0.99
  7
CONVERTER_11
100
AcDbText
  0
TEXT
  5
191
330
33
100
AcDbEntity
  8
0
 62
     3
100
AcDbText
 10
93.47788608841618
 20
-295.0347844212137
 30
0.0
 40
1.5
  1
Zul.Mittigkeitsabweichung/Symmetrietoleranz
 50
-0.00000000000001
 41
0.99
  7
CONVERTER_11
100
AcDbText
  0
TEXT
  5
192
330
33
100
AcDbEntity
  8
0
 62
     3
100
AcDbText
 10
41.37788008841617
 20
-295.1597844212136
 30
0.0
 40
1.5
  1
Mittenrauhw.Ra
 50
-0.00000000000001
 41
0.99
  7
CONVERTER_11
100
AcDbText
  0
TEXT
  5
193
330
33
100
AcDbEntity
  8
0
 62
     3
100
AcDbText
 10
41.37788008841617
 20
-300.1597844212136
 30
0.0
 40
1.5
  1
Zeichen
 50
-0.00000000000001
 41
0.99
  7
CONVERTER_11
100
AcDbText
  0
TEXT
  5
194
330
33
100
AcDbEntity
  8
0
 62
     3
100
AcDbText
 10
41.37788008841617
 20
-305.1597844212136
 30
0.0
 40
1.5
  1
Rauhtiefe Rt
 50
-0.00000000000001
 41
0.99
  7
CONVERTER_11
100
AcDbText
  0
TEXT
  5
195
330
33
100
AcDbEntity
  8
0
 62
     3
100
AcDbText
 10
64.37788008841616
 20
-295.1597844212136
 30
0.0
 40
1.8
  1
16  10  2    0,25
 50
-0.00000000000001
 41
0.99
  7
CONVERTER_11
100
AcDbText
  0
TEXT
  5
196
330
33
100
AcDbEntity
  8
0
 62
     3
100
AcDbText
 10
64.37788008841616
 20
-305.1597844212136
 30
0.0
 40
1.8
  1
40  25 6,3   1
 50
-0.00000000000001
 41
0.99
  7
CONVERTER_11
100
AcDbText
  0
ENDBLK
  5
35
330
33
100
AcDbEntity
  8
0
100
AcDbBlockEnd
  0
BLOCK
  5
38
330
36
100
AcDbEntity
  8
0
100
AcDbBlockBegin
  2
rahmen
 70
     0
 71
     0
 10
-257.5221139115838
 20
-354.1597844212137
 30
0.0
  3
rahmen
  1

  0
INSERT
  5
37
330
36
100
AcDbEntity
  8
1
100
AcDbBlockReference
  2
a2gr
 10
-257.5221139115838
 20
-354.1597844212137
 30
0.0
  0
ENDBLK
  5
39
330
36
100
AcDbEntity
  8
0
100
AcDbBlockEnd
  0
BLOCK
  5
3C
330
3A
100
AcDbEntity
  8
0
100
AcDbBlockBegin
  2
Tuerschiene_TS550
 70
     0
 71
     0
 10
45.1197552269492
 20
-79.6343084542617
 30
0.0
  3
Tuerschiene_TS550
  1

  0
INSERT
  5
3B
330
3A
100
AcDbEntity
  8
0
100
AcDbBlockReference
  2
rahmen
 10
-257.5221139115838
 20
-354.1597844212137
 30
0.0
  0
POINT
  5
197
330
3A
100
AcDbEntity
  8
1
 62
     3
 60
     1
100
AcDbPoint
 10
-162.7963184589109
 20
-177.3486669459172
 30
0.0
  0
POINT
  5
198
330
3A
100
AcDbEntity
  8
1
 62
     3
 60
     1
100
AcDbPoint
 10
-162.7963144588659
 20
-177.3486669459172
 30
0.0
  0
POINT
  5
199
330
3A
100
AcDbEntity
  8
1
 62
     3
 60
     1
100
AcDbPoint
 10
-162.7963144588659
 20
-161.6859969459171
 30
0.0
  0
POINT
  5
19A
330
3A
100
AcDbEntity
  8
1
 62
     3
 60
     1
100
AcDbPoint
 10
-187.7963722903488
 20
-161.6859969459171
 30
0.0
  0
LINE
  5
19B
330
3A
100
AcDbEntity
  8
1
  6
Continuous
 62
     3
100
AcDbLine
 10
-58.38025278212491
 20
-49.63591294110222
 30
0.0
 11
-49.37952751932248
 21
-49.63591294110222
 31
0.0
  0
LINE
  5
19C
330
3A
100
AcDbEntity
  8
0
  6
Continuous
 62
     4
100
AcDbLine
 10
266.6154602269492
 20
-121.4259399459172
 30
0.0
 11
259.6140022269492
 21
-128.4273519459172
 31
0.0
  0
LINE
  5
19D
330
3A
100
AcDbEntity
  8
0
  6
Continuous
 62
     4
100
AcDbLine
 10
258.6240432269492
 20
-127.4373819459172
 30
0.0
 11
265.6254772269492
 21
-120.4359759459172
 31
0.0
  0
LINE
  5
19E
330
3A
100
AcDbEntity
  8
0
  6
Continuous
 62
     4
100
AcDbLine
 10
258.6240432269492
 20
-189.4373819459172
 30
0.0
 11
265.6254772269492
 21
-182.4359759459172
 31
0.0
  0
LINE
  5
19F
330
3A
100
AcDbEntity
  8
0
  6
Continuous
 62
     4
100
AcDbLine
 10
266.6154602269492
 20
-183.4259399459172
 30
0.0
 11
259.6140022269492
 21
-190.4273519459172
 31
0.0
  0
LINE
  5
1A0
330
3A
100
AcDbEntity
  8
0
  6
Continuous
 62
     4
100
AcDbLine
 10
90.61546022694918
 20
-183.4259399459171
 30
0.0
 11
83.61400222694917
 21
-190.4273519459171
 31
0.0
  0
LINE
  5
1A1
330
3A
100
AcDbEntity
  8
0
  6
Continuous
 62
     4
100
AcDbLine
 10
82.62404322694917
 20
-189.4373819459171
 30
0.0
 11
89.6254772269492
 21
-182.4359759459171
 31
0.0
  0
LINE
  5
1A2
330
3A
100
AcDbEntity
  8
0
  6
Continuous
 62
     4
100
AcDbLine
 10
-101.296448458911
 20
-121.8316689459171
 30
0.0
 11
-101.296448458911
 21
-199.0338408350656
 31
0.0
  0
LINE
  5
1A3
330
3A
100
AcDbEntity
  8
0
  6
Continuous
 62
     4
100
AcDbLine
 10
-155.296448458911
 20
-119.4316749459171
 30
0.0
 11
-103.696445458911
 21
-119.4316749459171
 31
0.0
  0
LINE
  5
1A4
330
3A
100
AcDbEntity
  8
0
  6
Continuous
 62
     4
100
AcDbLine
 10
-155.2964484589109
 20
-201.4316749459172
 30
0.0
 11
-155.296448458911
 21
-119.4316749459171
 31
0.0
  0
LINE
  5
1A5
330
3A
100
AcDbEntity
  8
0
  6
Continuous
 62
     4
100
AcDbLine
 10
-103.696445458911
 20
-201.4316749459171
 30
0.0
 11
-155.2964484589109
 21
-201.4316749459172
 31
0.0
  0
LINE
  5
1A6
330
3A
100
AcDbEntity
  8
0
  6
Continuous
 62
     4
100
AcDbLine
 10
48.6197552269492
 20
-119.4316749459171
 30
0.0
 11
48.6197552269492
 21
-95.4316749459171
 31
0.0
  0
LINE
  5
1A7
330
3A
100
AcDbEntity
  8
0
  6
DASH_CENTER
 62
     3
100
AcDbLine
 10
15.6197552269492
 20
-135.4316749459171
 30
0.0
 11
15.6197552269492
 21
-133.4316749459171
 31
0.0
  0
LINE
  5
1A8
330
3A
100
AcDbEntity
  8
0
  6
DASH_CENTER
 62
     3
100
AcDbLine
 10
-6.3802447730508
 20
-155.4316749459171
 30
0.0
 11
-4.3802447730508
 21
-155.4316749459171
 31
0.0
  0
LINE
  5
1A9
330
3A
100
AcDbEntity
  8
0
  6
LONG_DASHED
 62
     3
100
AcDbLine
 10
15.6197552269492
 20
-135.4316749459171
 30
0.0
 11
44.6197552269492
 21
-135.4316749459171
 31
0.0
  0
LINE
  5
1AA
330
3A
100
AcDbEntity
  8
0
  6
LONG_DASHED
 62
     3
100
AcDbLine
 10
48.6197552269492
 20
-131.4316749459171
 30
0.0
 11
48.6197552269492
 21
-119.4316749459171
 31
0.0
  0
LINE
  5
1AB
330
3A
100
AcDbEntity
  8
0
  6
DASH_CENTER
 62
     3
100
AcDbLine
 10
46.6197552269492
 20
-103.4316749459171
 30
0.0
 11
60.6197552269492
 21
-103.4316749459171
 31
0.0
  0
LINE
  5
1AC
330
3A
100
AcDbEntity
  8
0
  6
DASH_CENTER
 62
     3
100
AcDbLine
 10
194.8697552269492
 20
-103.4316749459171
 30
0.0
 11
267.6197552269492
 21
-103.4316749459171
 31
0.0
  0
LINE
  5
1AD
330
3A
100
AcDbEntity
  8
0
  6
Continuous
 62
     4
100
AcDbLine
 10
83.6197552269492
 20
-115.4316749459171
 30
0.0
 11
261.6197552269492
 21
-115.4316749459171
 31
0.0
  0
LINE
  5
1AE
330
3A
100
AcDbEntity
  8
0
  6
Continuous
 62
     4
100
AcDbLine
 10
83.6197552269492
 20
-115.4316749459171
 30
0.0
 11
83.6197552269492
 21
-119.4316749459171
 31
0.0
  0
LINE
  5
1AF
330
3A
100
AcDbEntity
  8
0
  6
LONG_DASHED
 62
     3
100
AcDbLine
 10
83.6197552269492
 20
-119.4316749459171
 30
0.0
 11
70.6081622269492
 21
-155.1805409459171
 31
0.0
  0
LINE
  5
1B0
330
3A
100
AcDbEntity
  8
0
  6
LONG_DASHED
 62
     3
100
AcDbLine
 10
22.4601602269492
 20
-174.2255269459171
 30
0.0
 11
68.2174762269492
 21
-157.5712239459171
 31
0.0
  0
LINE
  5
1B1
330
3A
100
AcDbEntity
  8
0
  6
Continuous
 62
     4
100
AcDbLine
 10
72.6197552269492
 20
-95.4316749459171
 30
0.0
 11
96.6197552269492
 21
-95.4316749459171
 31
0.0
  0
LINE
  5
1B2
330
3A
100
AcDbEntity
  8
0
  6
Continuous
 62
     4
100
AcDbLine
 10
99.6197552269492
 20
-98.4316749459171
 30
0.0
 11
99.6197552269492
 21
-108.4316749459171
 31
0.0
  0
LINE
  5
1B3
330
3A
100
AcDbEntity
  8
0
  6
Continuous
 62
     4
100
AcDbLine
 10
96.6197552269492
 20
-111.4316749459171
 30
0.0
 11
72.6197552269492
 21
-111.4316749459171
 31
0.0
  0
LINE
  5
1B4
330
3A
100
AcDbEntity
  8
0
  6
Continuous
 62
     4
100
AcDbLine
 10
69.6197552269492
 20
-108.4316749459171
 30
0.0
 11
69.6197552269492
 21
-98.4316749459171
 31
0.0
  0
LINE
  5
1B5
330
3A
100
AcDbEntity
  8
0
  6
Continuous
 62
     4
100
AcDbLine
 10
120.6197552269492
 20
-95.4316749459171
 30
0.0
 11
144.6197552269492
 21
-95.4316749459171
 31
0.0
  0
LINE
  5
1B6
330
3A
100
AcDbEntity
  8
0
  6
Continuous
 62
     4
100
AcDbLine
 10
147.6197552269492
 20
-98.4316749459171
 30
0.0
 11
147.6197552269492
 21
-108.4316749459171
 31
0.0
  0
LINE
  5
1B7
330
3A
100
AcDbEntity
  8
0
  6
Continuous
 62
     4
100
AcDbLine
 10
144.6197552269492
 20
-111.4316749459171
 30
0.0
 11
120.6197552269492
 21
-111.4316749459171
 31
0.0
  0
LINE
  5
1B8
330
3A
100
AcDbEntity
  8
0
  6
Continuous
 62
     4
100
AcDbLine
 10
117.6197552269492
 20
-108.4316749459171
 30
0.0
 11
117.6197552269492
 21
-98.4316749459171
 31
0.0
  0
LINE
  5
1B9
330
3A
100
AcDbEntity
  8
0
  6
Continuous
 62
     4
100
AcDbLine
 10
168.6197552269492
 20
-111.4316749459171
 30
0.0
 11
192.6197552269492
 21
-111.4316749459171
 31
0.0
  0
LINE
  5
1BA
330
3A
100
AcDbEntity
  8
0
  6
Continuous
 62
     4
100
AcDbLine
 10
195.6197552269492
 20
-108.4316749459171
 30
0.0
 11
195.6197552269492
 21
-98.4316749459171
 31
0.0
  0
LINE
  5
1BB
330
3A
100
AcDbEntity
  8
0
  6
Continuous
 62
     4
100
AcDbLine
 10
192.6197552269492
 20
-95.4316749459171
 30
0.0
 11
168.6197552269492
 21
-95.4316749459171
 31
0.0
  0
LINE
  5
1BC
330
3A
100
AcDbEntity
  8
0
  6
Continuous
 62
     4
100
AcDbLine
 10
165.6197552269492
 20
-98.4316749459171
 30
0.0
 11
165.6197552269492
 21
-108.4316749459171
 31
0.0
  0
LINE
  5
1BD
330
3A
100
AcDbEntity
  8
0
  6
Continuous
 62
     4
100
AcDbLine
 10
216.6197552269492
 20
-95.4316749459171
 30
0.0
 11
240.6197552269492
 21
-95.4316749459171
 31
0.0
  0
LINE
  5
1BE
330
3A
100
AcDbEntity
  8
0
  6
Continuous
 62
     4
100
AcDbLine
 10
243.6197552269492
 20
-98.4316749459171
 30
0.0
 11
243.6197552269492
 21
-108.4316749459171
 31
0.0
  0
LINE
  5
1BF
330
3A
100
AcDbEntity
  8
0
  6
Continuous
 62
     4
100
AcDbLine
 10
240.6197552269492
 20
-111.4316749459171
 30
0.0
 11
216.6197552269492
 21
-111.4316749459171
 31
0.0
  0
LINE
  5
1C0
330
3A
100
AcDbEntity
  8
0
  6
Continuous
 62
     4
100
AcDbLine
 10
213.6197552269492
 20
-108.4316749459171
 30
0.0
 11
213.6197552269492
 21
-98.4316749459171
 31
0.0
  0
LINE
  5
1C1
330
3A
100
AcDbEntity
  8
0
  6
DASH_CENTER
 62
     3
100
AcDbLine
 10
99.6197552269492
 20
-103.4316749459171
 30
0.0
 11
117.6197552269492
 21
-103.4316749459171
 31
0.0
  0
LINE
  5
1C2
330
3A
100
AcDbEntity
  8
0
  6
DASH_CENTER
 62
     3
100
AcDbLine
 10
147.6197552269492
 20
-103.4316749459171
 30
0.0
 11
165.6197552269492
 21
-103.4316749459171
 31
0.0
  0
LINE
  5
1C3
330
3A
100
AcDbEntity
  8
1
  6
DASH_CENTER
 62
     3
100
AcDbLine
 10
60.6197552269492
 20
-103.4316749459171
 30
0.0
 11
60.6197552269492
 21
-94.78419120516719
 31
0.0
  0
LINE
  5
1C4
330
3A
100
AcDbEntity
  8
0
  6
DASH_CENTER
 62
     3
100
AcDbLine
 10
66.8197552269492
 20
-103.4316749459171
 30
0.0
 11
69.6197552269492
 21
-103.4316749459171
 31
0.0
  0
LINE
  5
1C5
330
3A
100
AcDbEntity
  8
0
  6
DASH_CENTER
 62
     3
100
AcDbLine
 10
63.8197552269492
 20
-103.4316749459171
 30
0.0
 11
66.8197552269492
 21
-103.4316749459171
 31
0.0
  0
LINE
  5
1C6
330
3A
100
AcDbEntity
  8
1
  6
DASH_CENTER
 62
     3
100
AcDbLine
 10
60.6197552269492
 20
-103.4316749459171
 30
0.0
 11
60.6197552269492
 21
-111.791472830627
 31
0.0
  0
LINE
  5
1C7
330
3A
100
AcDbEntity
  8
0
  6
DASH_CENTER
 62
     3
100
AcDbLine
 10
60.6197552269492
 20
-103.4316749459171
 30
0.0
 11
63.8197552269492
 21
-103.4316749459171
 31
0.0
  0
LINE
  5
1C8
330
3A
100
AcDbEntity
  8
1
  6
DASH_CENTER
 62
     3
100
AcDbLine
 10
108.6197552269492
 20
-103.4316749459171
 30
0.0
 11
108.6197552269492
 21
-111.791472830627
 31
0.0
  0
LINE
  5
1C9
330
3A
100
AcDbEntity
  8
1
  6
DASH_CENTER
 62
     3
100
AcDbLine
 10
108.6197552269492
 20
-103.4316749459171
 30
0.0
 11
108.6197552269492
 21
-94.78419120516719
 31
0.0
  0
LINE
  5
1CA
330
3A
100
AcDbEntity
  8
1
  6
DASH_CENTER
 62
     3
100
AcDbLine
 10
156.6197552269492
 20
-103.4316749459171
 30
0.0
 11
156.6197552269492
 21
-111.791472830627
 31
0.0
  0
LINE
  5
1CB
330
3A
100
AcDbEntity
  8
1
  6
DASH_CENTER
 62
     3
100
AcDbLine
 10
156.6197552269492
 20
-103.4316749459171
 30
0.0
 11
156.6197552269492
 21
-94.78419120516719
 31
0.0
  0
LINE
  5
1CC
330
3A
100
AcDbEntity
  8
1
  6
DASH_CENTER
 62
     3
100
AcDbLine
 10
204.6197552269492
 20
-103.4316749459171
 30
0.0
 11
204.6197552269492
 21
-94.78419120516719
 31
0.0
  0
LINE
  5
1CD
330
3A
100
AcDbEntity
  8
1
  6
DASH_CENTER
 62
     3
100
AcDbLine
 10
204.6197552269492
 20
-103.4316749459171
 30
0.0
 11
204.6197552269492
 21
-111.791472830627
 31
0.0
  0
LINE
  5
1CE
330
3A
100
AcDbEntity
  8
1
  6
DASH_CENTER
 62
     3
100
AcDbLine
 10
252.6197552269492
 20
-103.4316749459171
 30
0.0
 11
252.6197552269492
 21
-94.78419120516719
 31
0.0
  0
LINE
  5
1CF
330
3A
100
AcDbEntity
  8
1
  6
DASH_CENTER
 62
     3
100
AcDbLine
 10
252.6197552269492
 20
-103.4316749459171
 30
0.0
 11
252.6197552269492
 21
-111.791472830627
 31
0.0
  0
LINE
  5
1D0
330
3A
100
AcDbEntity
  8
1
  6
LONG_DASHED
 62
     3
100
AcDbLine
 10
25.81155076846844
 20
-150.5513774509085
 30
0.0
 11
20.09788915378849
 21
-150.0514968323982
 31
0.0
  0
LINE
  5
1D1
330
3A
100
AcDbEntity
  8
1
  6
LONG_DASHED
 62
     3
100
AcDbLine
 10
12.14391234169998
 20
-149.355614031388
 30
0.0
 11
6.43025072702912
 21
-148.8557334128886
 31
0.0
  0
LINE
  5
1D2
330
3A
100
AcDbEntity
  8
1
  6
LONG_DASHED
 62
     3
100
AcDbLine
 10
11.14162130009899
 20
-160.8118530594469
 30
0.0
 11
5.42795968542996
 21
-160.3119724409366
 31
0.0
  0
LINE
  5
1D3
330
3A
100
AcDbEntity
  8
1
  6
LONG_DASHED
 62
     3
100
AcDbLine
 10
24.80925972686928
 20
-162.0076164789565
 30
0.0
 11
19.09559811217841
 21
-161.5077358604462
 31
0.0
  0
LINE
  5
1D4
330
3A
100
AcDbEntity
  8
0
  6
Continuous
 62
     4
100
AcDbLine
 10
265.6197552269492
 20
-95.4316749459171
 30
0.0
 11
265.6197552269492
 21
-111.4316749459171
 31
0.0
  0
LINE
  5
1D5
330
3A
100
AcDbEntity
  8
0
  6
Continuous
 62
     4
100
AcDbLine
 10
52.6197552269492
 20
-91.4316749459171
 30
0.0
 11
261.6197552269492
 21
-91.4316749459171
 31
0.0
  0
LINE
  5
1D6
330
3A
100
AcDbEntity
  8
0
  6
DASH_CENTER
 62
     3
100
AcDbLine
 10
-4.3802447730508
 20
-155.4316749459171
 30
0.0
 11
15.6197552269492
 21
-155.4316749459171
 31
0.0
  0
LINE
  5
1D7
330
3A
100
AcDbEntity
  8
0
  6
DASH_CENTER
 62
     3
100
AcDbLine
 10
15.6197552269492
 20
-155.4316749459171
 30
0.0
 11
15.6197552269492
 21
-135.4316749459171
 31
0.0
  0
LINE
  5
1D8
330
3A
100
AcDbEntity
  8
1
  6
DASH_CENTER
 62
     3
100
AcDbLine
 10
15.6197552269492
 20
-155.4316749459171
 30
0.0
 11
15.6197552269492
 21
-177.7290414375725
 31
0.0
  0
LINE
  5
1D9
330
3A
100
AcDbEntity
  8
0
  6
DASH_CENTER
 62
     3
100
AcDbLine
 10
15.6197552269492
 20
-155.4316749459171
 30
0.0
 11
37.6197552269492
 21
-155.4316749459171
 31
0.0
  0
LINE
  5
1DA
330
3A
100
AcDbEntity
  8
0
  6
LONG_DASHED
 62
     3
100
AcDbLine
 10
-10.18017177305084
 20
-200.2316559459171
 30
0.0
 11
6.81982822694916
 21
-200.2316559459171
 31
0.0
  0
LINE
  5
1DB
330
3A
100
AcDbEntity
  8
0
  6
LONG_DASHED
 62
     3
100
AcDbLine
 10
300.4197582269492
 20
-123.6316879459171
 30
0.0
 11
300.4197582269492
 21
-197.2316559459171
 31
0.0
  0
LINE
  5
1DC
330
3A
100
AcDbEntity
  8
0
  6
LONG_DASHED
 62
     3
100
AcDbLine
 10
-22.18023277305083
 20
-120.6316879459171
 30
0.0
 11
297.4197582269492
 21
-120.6316879459171
 31
0.0
  0
LINE
  5
1DD
330
3A
100
AcDbEntity
  8
0
  6
LONG_DASHED
 62
     3
100
AcDbLine
 10
-25.18023277305083
 20
-197.2316559459171
 30
0.0
 11
-25.18023277305083
 21
-123.6316879459171
 31
0.0
  0
LINE
  5
1DE
330
3A
100
AcDbEntity
  8
0
  6
LONG_DASHED
 62
     3
100
AcDbLine
 10
297.4197582269492
 20
-200.2316559459171
 30
0.0
 11
-22.18023277305083
 21
-200.2316559459171
 31
0.0
  0
LINE
  5
1DF
330
3A
100
AcDbEntity
  8
0
  6
LONG_DASHED
 62
     3
100
AcDbLine
 10
301.6197552269492
 20
-123.6316879459171
 30
0.0
 11
301.6197552269492
 21
-197.2316559459171
 31
0.0
  0
LINE
  5
1E0
330
3A
100
AcDbEntity
  8
0
  6
LONG_DASHED
 62
     3
100
AcDbLine
 10
-22.18023277305083
 20
-119.4316749459171
 30
0.0
 11
47.6197552269492
 21
-119.4316749459171
 31
0.0
  0
LINE
  5
1E1
330
3A
100
AcDbEntity
  8
0
  6
LONG_DASHED
 62
     3
100
AcDbLine
 10
-26.38024477305078
 20
-197.2316559459171
 30
0.0
 11
-26.38024477305078
 21
-123.6316879459171
 31
0.0
  0
LINE
  5
1E2
330
3A
100
AcDbEntity
  8
0
  6
LONG_DASHED
 62
     3
100
AcDbLine
 10
297.4197582269492
 20
-201.4316519459171
 30
0.0
 11
-22.18023277305083
 21
-201.4316519459171
 31
0.0
  0
LINE
  5
1E3
330
3A
100
AcDbEntity
  8
0
  6
DASH_CENTER
 62
     3
100
AcDbLine
 10
-16.88024477305079
 20
-148.2976853744885
 30
0.0
 11
-16.88024477305079
 21
-155.4316749459171
 31
0.0
  0
LINE
  5
1E4
330
3A
100
AcDbEntity
  8
0
  6
DASH_CENTER
 62
     3
100
AcDbLine
 10
-38.38024477305078
 20
-155.4316749459171
 30
0.0
 11
318.3678926441683
 21
-155.4316749459171
 31
0.0
  0
LINE
  5
1E5
330
3A
100
AcDbEntity
  8
0
  6
DASH_CENTER
 62
     3
100
AcDbLine
 10
15.6197552269492
 20
-207.9316749459171
 30
0.0
 11
15.6197552269492
 21
-213.4316749459171
 31
0.0
  0
LINE
  5
1E6
330
3A
100
AcDbEntity
  8
0
  6
Continuous
 62
     4
100
AcDbLine
 10
11.2366832269492
 20
-158.7541199459171
 30
0.0
 11
18.9421882269492
 21
-151.0485919459171
 31
0.0
  0
LINE
  5
1E7
330
3A
100
AcDbEntity
  8
0
  6
Continuous
 62
     4
100
AcDbLine
 10
20.0028502269492
 20
-152.1092549459171
 30
0.0
 11
12.29735222694922
 21
-159.8147719459171
 31
0.0
  0
LINE
  5
1E8
330
3A
100
AcDbEntity
  8
0
  6
DASH_CENTER
 62
     3
100
AcDbLine
 10
-16.88024477305079
 20
-155.4316749459171
 30
0.0
 11
-16.88024477305079
 21
-163.1201853744885
 31
0.0
  0
LINE
  5
1E9
330
3A
100
AcDbEntity
  8
0
  6
Continuous
 62
     4
100
AcDbLine
 10
-20.87595677305081
 20
-158.4373819459171
 30
0.0
 11
-13.87452277305078
 21
-151.4359759459171
 31
0.0
  0
LINE
  5
1EA
330
3A
100
AcDbEntity
  8
0
  6
Continuous
 62
     4
100
AcDbLine
 10
-12.8845397730508
 20
-152.4259399459171
 30
0.0
 11
-19.88599777305081
 21
-159.4273519459171
 31
0.0
  0
LINE
  5
1EB
330
3A
100
AcDbEntity
  8
0
  6
Continuous
 62
     3
100
AcDbLine
 10
48.7197552269492
 20
-201.4316749459171
 30
0.0
 11
50.6197552269492
 21
-201.4316749459171
 31
0.0
  0
LINE
  5
1EC
330
3A
100
AcDbEntity
  8
0
  6
Continuous
 62
     4
100
AcDbLine
 10
77.0705152269492
 20
-161.6859969459171
 30
0.0
 11
24.0584872269492
 21
-179.9395139459171
 31
0.0
  0
LINE
  5
1ED
330
3A
100
AcDbEntity
  8
0
  6
Continuous
 62
     4
100
AcDbLine
 10
47.6197552269492
 20
-119.4316749459171
 30
0.0
 11
44.6693932269492
 21
-127.5377389459171
 31
0.0
  0
LINE
  5
1EE
330
3A
100
AcDbEntity
  8
0
  6
Continuous
 62
     4
100
AcDbLine
 10
15.6197552269492
 20
-129.5116809459171
 30
0.0
 11
41.85031222694921
 21
-129.5116809459171
 31
0.0
  0
LINE
  5
1EF
330
3A
100
AcDbEntity
  8
0
  6
Continuous
 62
     4
100
AcDbLine
 10
91.6197552269492
 20
-119.4316749459171
 30
0.0
 11
50.6197552269492
 21
-119.4316749459171
 31
0.0
  0
LINE
  5
1F0
330
3A
100
AcDbEntity
  8
0
  6
Continuous
 62
     4
100
AcDbLine
 10
50.6197552269492
 20
-119.4316749459171
 30
0.0
 11
50.27806322694921
 21
-119.4316749459171
 31
0.0
  0
LINE
  5
1F1
330
3A
100
AcDbEntity
  8
0
  6
Continuous
 62
     4
100
AcDbLine
 10
50.27806322694921
 20
-119.4316749459171
 30
0.0
 11
48.7197552269492
 21
-119.4316749459171
 31
0.0
  0
LINE
  5
1F2
330
3A
100
AcDbEntity
  8
0
  6
Continuous
 62
     4
100
AcDbLine
 10
48.7197552269492
 20
-119.4316749459171
 30
0.0
 11
47.6197552269492
 21
-119.4316749459171
 31
0.0
  0
LINE
  5
1F3
330
3A
100
AcDbEntity
  8
0
  6
Continuous
 62
     4
100
AcDbLine
 10
77.0705152269492
 20
-161.6859969459171
 30
0.0
 11
91.6197552269492
 21
-119.4316749459171
 31
0.0
  0
LINE
  5
1F4
330
3A
100
AcDbEntity
  8
0
  6
DASH_CENTER
 62
     3
100
AcDbLine
 10
15.6197552269492
 20
-116.4316749459171
 30
0.0
 11
15.6197552269492
 21
-207.9316749459171
 31
0.0
  0
LINE
  5
1F5
330
3A
100
AcDbEntity
  8
1
  6
LONG_DASHED
 62
     3
100
AcDbLine
 10
243.6197552269492
 20
49.86569154573827
 30
0.0
 11
243.6197552269492
 21
50.86569154573827
 31
0.0
  0
LINE
  5
1F6
330
3A
100
AcDbEntity
  8
1
  6
LONG_DASHED
 62
     3
100
AcDbLine
 10
243.6197552269492
 20
50.86569154573827
 30
0.0
 11
213.6197552269492
 21
50.86569154573827
 31
0.0
  0
LINE
  5
1F7
330
3A
100
AcDbEntity
  8
1
  6
LONG_DASHED
 62
     3
100
AcDbLine
 10
213.6197552269492
 20
49.86569154573827
 30
0.0
 11
213.6197552269492
 21
50.86569154573827
 31
0.0
  0
LINE
  5
1F8
330
3A
100
AcDbEntity
  8
1
  6
LONG_DASHED
 62
     3
100
AcDbLine
 10
195.6197552269492
 20
49.86569154573827
 30
0.0
 11
195.6197552269492
 21
50.86569154573827
 31
0.0
  0
LINE
  5
1F9
330
3A
100
AcDbEntity
  8
1
  6
LONG_DASHED
 62
     3
100
AcDbLine
 10
195.6197552269492
 20
50.86569154573827
 30
0.0
 11
165.6197552269492
 21
50.86569154573827
 31
0.0
  0
LINE
  5
1FA
330
3A
100
AcDbEntity
  8
1
  6
LONG_DASHED
 62
     3
100
AcDbLine
 10
165.6197552269492
 20
49.86569154573827
 30
0.0
 11
165.6197552269492
 21
50.86569154573827
 31
0.0
  0
LINE
  5
1FB
330
3A
100
AcDbEntity
  8
1
  6
LONG_DASHED
 62
     3
100
AcDbLine
 10
147.6197552269492
 20
49.86569154573827
 30
0.0
 11
147.6197552269492
 21
50.86569154573827
 31
0.0
  0
LINE
  5
1FC
330
3A
100
AcDbEntity
  8
1
  6
LONG_DASHED
 62
     3
100
AcDbLine
 10
147.6197552269492
 20
50.86569154573827
 30
0.0
 11
117.6197552269492
 21
50.86569154573827
 31
0.0
  0
LINE
  5
1FD
330
3A
100
AcDbEntity
  8
1
  6
LONG_DASHED
 62
     3
100
AcDbLine
 10
117.6197552269492
 20
49.86569154573827
 30
0.0
 11
117.6197552269492
 21
50.86569154573827
 31
0.0
  0
LINE
  5
1FE
330
3A
100
AcDbEntity
  8
1
  6
LONG_DASHED
 62
     3
100
AcDbLine
 10
99.6197552269492
 20
49.86569154573827
 30
0.0
 11
99.6197552269492
 21
50.86569154573827
 31
0.0
  0
LINE
  5
1FF
330
3A
100
AcDbEntity
  8
1
  6
LONG_DASHED
 62
     3
100
AcDbLine
 10
99.6197552269492
 20
50.86569154573827
 30
0.0
 11
69.6197552269492
 21
50.86569154573827
 31
0.0
  0
LINE
  5
200
330
3A
100
AcDbEntity
  8
1
  6
LONG_DASHED
 62
     3
100
AcDbLine
 10
69.6197552269492
 20
49.86569154573827
 30
0.0
 11
69.6197552269492
 21
50.86569154573827
 31
0.0
  0
LINE
  5
201
330
3A
100
AcDbEntity
  8
1
  6
LONG_DASHED
 62
     3
100
AcDbLine
 10
243.6197552269492
 20
58.8656915457383
 30
0.0
 11
243.6197552269492
 21
59.8656915457383
 31
0.0
  0
LINE
  5
202
330
3A
100
AcDbEntity
  8
1
  6
LONG_DASHED
 62
     3
100
AcDbLine
 10
213.6197552269492
 20
58.8656915457383
 30
0.0
 11
243.6197552269492
 21
58.8656915457383
 31
0.0
  0
LINE
  5
203
330
3A
100
AcDbEntity
  8
1
  6
LONG_DASHED
 62
     3
100
AcDbLine
 10
213.6197552269492
 20
58.8656915457383
 30
0.0
 11
213.6197552269492
 21
59.8656915457383
 31
0.0
  0
LINE
  5
204
330
3A
100
AcDbEntity
  8
1
  6
LONG_DASHED
 62
     3
100
AcDbLine
 10
195.6197552269492
 20
58.8656915457383
 30
0.0
 11
195.6197552269492
 21
59.8656915457383
 31
0.0
  0
LINE
  5
205
330
3A
100
AcDbEntity
  8
1
  6
LONG_DASHED
 62
     3
100
AcDbLine
 10
165.6197552269492
 20
58.8656915457383
 30
0.0
 11
195.6197552269492
 21
58.8656915457383
 31
0.0
  0
LINE
  5
206
330
3A
100
AcDbEntity
  8
1
  6
LONG_DASHED
 62
     3
100
AcDbLine
 10
165.6197552269492
 20
58.8656915457383
 30
0.0
 11
165.6197552269492
 21
59.8656915457383
 31
0.0
  0
LINE
  5
207
330
3A
100
AcDbEntity
  8
1
  6
LONG_DASHED
 62
     3
100
AcDbLine
 10
117.6197552269492
 20
58.8656915457383
 30
0.0
 11
147.6197552269492
 21
58.8656915457383
 31
0.0
  0
LINE
  5
208
330
3A
100
AcDbEntity
  8
1
  6
LONG_DASHED
 62
     3
100
AcDbLine
 10
147.6197552269492
 20
58.8656915457383
 30
0.0
 11
147.6197552269492
 21
59.8656915457383
 31
0.0
  0
LINE
  5
209
330
3A
100
AcDbEntity
  8
1
  6
LONG_DASHED
 62
     3
100
AcDbLine
 10
117.6197552269492
 20
58.8656915457383
 30
0.0
 11
117.6197552269492
 21
59.8656915457383
 31
0.0
  0
LINE
  5
20A
330
3A
100
AcDbEntity
  8
1
  6
LONG_DASHED
 62
     3
100
AcDbLine
 10
69.6197552269492
 20
58.8656915457383
 30
0.0
 11
99.6197552269492
 21
58.8656915457383
 31
0.0
  0
LINE
  5
20B
330
3A
100
AcDbEntity
  8
1
  6
LONG_DASHED
 62
     3
100
AcDbLine
 10
69.6197552269492
 20
58.8656915457383
 30
0.0
 11
69.6197552269492
 21
59.8656915457383
 31
0.0
  0
LINE
  5
20C
330
3A
100
AcDbEntity
  8
1
  6
LONG_DASHED
 62
     3
100
AcDbLine
 10
99.6197552269492
 20
58.8656915457383
 30
0.0
 11
99.6197552269492
 21
59.8656915457383
 31
0.0
  0
LINE
  5
20D
330
3A
100
AcDbEntity
  8
1
  6
Continuous
 62
     4
100
AcDbLine
 10
83.6197552269492
 20
54.8656915457383
 30
0.0
 11
83.09423405062083
 21
49.8656915457383
 31
0.0
  0
LINE
  5
20E
330
3A
100
AcDbEntity
  8
1
  6
Continuous
 62
     4
100
AcDbLine
 10
83.6197552269492
 20
54.8656915457383
 30
0.0
 11
83.09423405062083
 21
59.8656915457383
 31
0.0
  0
LINE
  5
20F
330
3A
100
AcDbEntity
  8
1
  6
Continuous
 62
     4
100
AcDbLine
 10
83.6197552269492
 20
54.8656915457383
 30
0.0
 11
265.6197552269492
 21
54.8656915457383
 31
0.0
  0
LINE
  5
210
330
3A
100
AcDbEntity
  8
1
  6
LONG_DASHED
 62
     3
100
AcDbLine
 10
-49.8800259567242
 20
11.8656915457383
 30
0.0
 11
-48.88020459295478
 21
11.8656915457383
 31
0.0
  0
LINE
  5
211
330
3A
100
AcDbEntity
  8
1
  6
LONG_DASHED
 62
     3
100
AcDbLine
 10
-49.8800259567242
 20
-4.1343084542617
 30
0.0
 11
-49.8800259567242
 21
11.8656915457383
 31
0.0
  0
LINE
  5
212
330
3A
100
AcDbEntity
  8
1
  6
LONG_DASHED
 62
     3
100
AcDbLine
 10
-49.8800259567242
 20
-4.1343084542617
 30
0.0
 11
-48.88002595665733
 21
-4.1343084542617
 31
0.0
  0
LINE
  5
213
330
3A
100
AcDbEntity
  8
1
  6
LONG_DASHED
 62
     3
100
AcDbLine
 10
-57.88023677305082
 20
-4.1343084542617
 30
0.0
 11
-58.88023677305082
 21
-4.1343084542617
 31
0.0
  0
LINE
  5
214
330
3A
100
AcDbEntity
  8
1
  6
LONG_DASHED
 62
     3
100
AcDbLine
 10
-57.88023677305082
 20
11.8656915457383
 30
0.0
 11
-58.8801527730508
 21
11.8656915457383
 31
0.0
  0
LINE
  5
215
330
3A
100
AcDbEntity
  8
1
  6
LONG_DASHED
 62
     3
100
AcDbLine
 10
-57.88023677305082
 20
-4.1343084542617
 30
0.0
 11
-57.88023677305082
 21
11.8656915457383
 31
0.0
  0
LINE
  5
216
330
3A
100
AcDbEntity
  8
1
  6
DASH_CENTER
 62
     3
100
AcDbLine
 10
-45.92384235755191
 20
3.8656915457383
 30
0.0
 11
-61.7170774801153
 21
3.8656915457383
 31
0.0
  0
LINE
  5
217
330
3A
100
AcDbEntity
  8
1
  6
Continuous
 62
     4
100
AcDbLine
 10
-63.38012277305079
 20
-29.03909345426176
 30
0.0
 11
-58.8802447730508
 21
-28.61050445426177
 31
0.0
  0
LINE
  5
218
330
3A
100
AcDbEntity
  8
1
  6
Continuous
 62
     4
100
AcDbLine
 10
-44.3802447730508
 20
-29.03909345426176
 30
0.0
 11
-48.87975677305081
 21
-28.61074845426172
 31
0.0
  0
LINE
  5
219
330
3A
100
AcDbEntity
  8
1
  6
Continuous
 62
     4
100
AcDbLine
 10
-48.87975677305081
 20
-28.61074845426172
 30
0.0
 11
-48.87975677305081
 21
-66.9281604542617
 31
0.0
  0
LINE
  5
21A
330
3A
100
AcDbEntity
  8
1
  6
Continuous
 62
     4
100
AcDbLine
 10
-58.8802447730508
 20
-28.61050445426177
 30
0.0
 11
-58.8802447730508
 21
-66.92816027304204
 31
0.0
  0
LINE
  5
21B
330
3A
100
AcDbEntity
  8
1
  6
Continuous
 62
     4
100
AcDbLine
 10
-53.8802447730508
 20
15.86556954573824
 30
0.0
 11
-53.8802447730508
 21
-68.1343084542617
 31
0.0
  0
LINE
  5
21C
330
3A
100
AcDbEntity
  8
1
  6
DASH_CENTER
 62
     3
100
AcDbLine
 10
-63.38011477305081
 20
-48.1343084542617
 30
0.0
 11
-65.38011477305082
 21
-48.1343084542617
 31
0.0
  0
LINE
  5
21D
330
3A
100
AcDbEntity
  8
1
  6
DASH_CENTER
 62
     3
100
AcDbLine
 10
-44.3802447730508
 20
-48.1343084542617
 30
0.0
 11
-42.3802447730508
 21
-48.1343084542617
 31
0.0
  0
LINE
  5
21E
330
3A
100
AcDbEntity
  8
1
  6
Continuous
 62
     4
100
AcDbLine
 10
15.6197552269492
 20
45.3656915457383
 30
0.0
 11
35.12188132375886
 21
45.3656915457383
 31
0.0
  0
LINE
  5
21F
330
3A
100
AcDbEntity
  8
1
  6
DASH_CENTER
 62
     3
100
AcDbLine
 10
15.6197552269492
 20
45.3656915457383
 30
0.0
 11
15.6197552269492
 21
43.3656915457383
 31
0.0
  0
LINE
  5
220
330
3A
100
AcDbEntity
  8
1
  6
Continuous
 62
     4
100
AcDbLine
 10
15.6197552269492
 20
64.3656915457383
 30
0.0
 11
35.12188132375886
 21
64.3656915457383
 31
0.0
  0
LINE
  5
221
330
3A
100
AcDbEntity
  8
1
  6
DASH_CENTER
 62
     3
100
AcDbLine
 10
15.6197552269492
 20
64.3656915457383
 30
0.0
 11
15.6197552269492
 21
66.3656915457383
 31
0.0
  0
LINE
  5
222
330
3A
100
AcDbEntity
  8
0
  6
Continuous
 62
     4
100
AcDbLine
 10
-187.7963724589109
 20
-149.2316019459172
 30
0.0
 11
-187.7963114589109
 21
-119.4316749459172
 31
0.0
  0
LINE
  5
223
330
3A
100
AcDbEntity
  8
0
  6
Continuous
 62
     4
100
AcDbLine
 10
-187.7963114589109
 20
-181.3516699459171
 30
0.0
 11
-187.7963722903488
 21
-161.6859969459171
 31
0.0
  0
LINE
  5
224
330
3A
100
AcDbEntity
  8
0
  6
Continuous
 62
     4
100
AcDbLine
 10
-162.7963184589109
 20
-177.3486669459172
 30
0.0
 11
-162.7963184589109
 21
-181.3516699459171
 31
0.0
  0
LINE
  5
225
330
3A
100
AcDbEntity
  8
0
  6
Continuous
 62
     4
100
AcDbLine
 10
-190.0585794589109
 20
-154.4316749459172
 30
0.0
 11
-187.1963354589109
 21
-154.4316749459172
 31
0.0
  0
LINE
  5
226
330
3A
100
AcDbEntity
  8
0
  6
Continuous
 62
     4
100
AcDbLine
 10
-190.0585794589109
 20
-156.4316749459172
 30
0.0
 11
-187.1963354589109
 21
-156.4316749459172
 31
0.0
  0
LINE
  5
227
330
3A
100
AcDbEntity
  8
0
  6
Continuous
 62
     4
100
AcDbLine
 10
-187.1963354589109
 20
-154.4316749459172
 30
0.0
 11
-187.1963354589109
 21
-156.4316749459172
 31
0.0
  0
LINE
  5
228
330
3A
100
AcDbEntity
  8
0
  6
Continuous
 62
     4
100
AcDbLine
 10
-162.7963144588659
 20
-149.6030353622745
 30
0.0
 11
-162.7963184589109
 21
-119.4316749459172
 31
0.0
  0
LINE
  5
229
330
3A
100
AcDbEntity
  8
0
  6
Continuous
 62
     4
100
AcDbLine
 10
-187.7964334589109
 20
-154.4316749459172
 30
0.0
 11
-187.7963724589109
 21
-149.2316019459172
 31
0.0
  0
LINE
  5
22A
330
3A
100
AcDbEntity
  8
0
  6
Continuous
 62
     4
100
AcDbLine
 10
-187.7963724589109
 20
-161.6315039459172
 30
0.0
 11
-187.7964334589109
 21
-156.4316749459172
 31
0.0
  0
LINE
  5
22B
330
3A
100
AcDbEntity
  8
0
  6
Continuous
 62
     4
100
AcDbLine
 10
-169.2962504589109
 20
-109.6316259459172
 30
0.0
 11
-169.2961894589109
 21
-114.9061009459172
 31
0.0
  0
LINE
  5
22C
330
3A
100
AcDbEntity
  8
0
  6
LONG_DASHED
 62
     3
100
AcDbLine
 10
-172.4962774589109
 20
-106.4316749459172
 30
0.0
 11
-169.2962504589109
 21
-109.6316259459172
 31
0.0
  0
LINE
  5
22D
330
3A
100
AcDbEntity
  8
0
  6
LONG_DASHED
 62
     3
100
AcDbLine
 10
-176.0961314589109
 20
-106.4316749459172
 30
0.0
 11
-172.4962774589109
 21
-106.4316749459172
 31
0.0
  0
LINE
  5
22E
330
3A
100
AcDbEntity
  8
0
  6
LONG_DASHED
 62
     3
100
AcDbLine
 10
-179.2964404589109
 20
-109.6318699459172
 30
0.0
 11
-176.0961314589109
 21
-106.4316749459172
 31
0.0
  0
LINE
  5
22F
330
3A
100
AcDbEntity
  8
0
  6
Continuous
 62
     4
100
AcDbLine
 10
-179.2964404589109
 20
-114.9061619459172
 30
0.0
 11
-179.2964404589109
 21
-109.6318699459172
 31
0.0
  0
LINE
  5
230
330
3A
100
AcDbEntity
  8
0
  6
Continuous
 62
     4
100
AcDbLine
 10
-174.2964484589109
 20
-115.4316749459172
 30
0.0
 11
-179.2964404589109
 21
-114.9061619459172
 31
0.0
  0
LINE
  5
231
330
3A
100
AcDbEntity
  8
0
  6
Continuous
 62
     4
100
AcDbLine
 10
-169.2961894589109
 20
-114.9061009459172
 30
0.0
 11
-174.2964484589109
 21
-115.4316749459172
 31
0.0
  0
LINE
  5
232
330
3A
100
AcDbEntity
  8
0
  6
Continuous
 62
     4
100
AcDbLine
 10
-169.2964484589109
 20
-91.95718794591721
 30
0.0
 11
-169.2963874589109
 21
-97.2318459459172
 31
0.0
  0
LINE
  5
233
330
3A
100
AcDbEntity
  8
0
  6
Continuous
 62
     4
100
AcDbLine
 10
-174.2964484589109
 20
-91.4316749459172
 30
0.0
 11
-169.2964484589109
 21
-91.95718794591721
 31
0.0
  0
LINE
  5
234
330
3A
100
AcDbEntity
  8
0
  6
Continuous
 62
     4
100
AcDbLine
 10
-179.2964484589109
 20
-91.95718794591721
 30
0.0
 11
-174.2964484589109
 21
-91.4316749459172
 31
0.0
  0
LINE
  5
235
330
3A
100
AcDbEntity
  8
0
  6
Continuous
 62
     4
100
AcDbLine
 10
-179.2963564589109
 20
-97.23178494591721
 30
0.0
 11
-179.2964484589109
 21
-91.95718794591721
 31
0.0
  0
LINE
  5
236
330
3A
100
AcDbEntity
  8
0
  6
LONG_DASHED
 62
     3
100
AcDbLine
 10
-176.0964594589109
 20
-100.4316139459172
 30
0.0
 11
-179.2963564589109
 21
-97.23178494591721
 31
0.0
  0
LINE
  5
237
330
3A
100
AcDbEntity
  8
0
  6
LONG_DASHED
 62
     3
100
AcDbLine
 10
-172.4962774589109
 20
-100.4316749459172
 30
0.0
 11
-176.0964594589109
 21
-100.4316139459172
 31
0.0
  0
LINE
  5
238
330
3A
100
AcDbEntity
  8
0
  6
LONG_DASHED
 62
     3
100
AcDbLine
 10
-169.2963874589109
 20
-97.2318459459172
 30
0.0
 11
-172.4962774589109
 21
-100.4316749459172
 31
0.0
  0
LINE
  5
239
330
3A
100
AcDbEntity
  8
0
  6
Continuous
 62
     4
100
AcDbLine
 10
-169.2961894589109
 20
-114.9061009459172
 30
0.0
 11
-169.2961401130498
 21
-119.4316749459172
 31
0.0
  0
LINE
  5
23A
330
3A
100
AcDbEntity
  8
0
  6
Continuous
 62
     4
100
AcDbLine
 10
-169.2963874589109
 20
-97.2318459459172
 30
0.0
 11
-169.2962504589109
 21
-109.6316259459172
 31
0.0
  0
LINE
  5
23B
330
3A
100
AcDbEntity
  8
0
  6
Continuous
 62
     4
100
AcDbLine
 10
-179.2964404589109
 20
-114.9061619459172
 30
0.0
 11
-179.2964421827856
 21
-119.4316749459172
 31
0.0
  0
LINE
  5
23C
330
3A
100
AcDbEntity
  8
0
  6
Continuous
 62
     4
100
AcDbLine
 10
-159.8965464589109
 20
-167.4316749459172
 30
0.0
 11
-159.8965464589109
 21
-143.4316749459172
 31
0.0
  0
LINE
  5
23D
330
3A
100
AcDbEntity
  8
0
  6
Continuous
 62
     4
100
AcDbLine
 10
-161.4364634589109
 20
-167.0189549459172
 30
0.0
 11
-161.4364634589109
 21
-143.8442729459172
 31
0.0
  0
LINE
  5
23E
330
3A
100
AcDbEntity
  8
0
  6
Continuous
 62
     4
100
AcDbLine
 10
-161.7965704589109
 20
-161.3126559459172
 30
0.0
 11
-161.4371954589109
 21
-161.3314549459172
 31
0.0
  0
LINE
  5
23F
330
3A
100
AcDbEntity
  8
0
  6
Continuous
 62
     4
100
AcDbLine
 10
-159.8965464589109
 20
-143.4316749459172
 30
0.0
 11
-161.4364634589109
 21
-143.8442729459172
 31
0.0
  0
LINE
  5
240
330
3A
100
AcDbEntity
  8
0
  6
Continuous
 62
     4
100
AcDbLine
 10
-159.8965464589109
 20
-167.4316749459172
 30
0.0
 11
-161.4364634589109
 21
-167.0189549459172
 31
0.0
  0
LINE
  5
241
330
3A
100
AcDbEntity
  8
0
  6
Continuous
 62
     4
100
AcDbLine
 10
-159.8965464589109
 20
-175.9316749459172
 30
0.0
 11
-159.8965464589109
 21
-134.9316749459172
 31
0.0
  0
LINE
  5
242
330
3A
100
AcDbEntity
  8
0
  6
Continuous
 62
     4
100
AcDbLine
 10
-157.8965464589109
 20
-201.9603619459172
 30
0.0
 11
-157.8965464589109
 21
-119.4316749459172
 31
0.0
  0
LINE
  5
243
330
3A
100
AcDbEntity
  8
0
  6
Continuous
 62
     4
100
AcDbLine
 10
-156.2964484589109
 20
-102.9316749459172
 30
0.0
 11
-157.8965464589109
 21
-108.9029879459172
 31
0.0
  0
LINE
  5
244
330
3A
100
AcDbEntity
  8
0
  6
Continuous
 62
     4
100
AcDbLine
 10
-156.2964484589109
 20
-207.9315529459172
 30
0.0
 11
-157.8965464589109
 21
-201.9603619459172
 31
0.0
  0
LINE
  5
245
330
3A
100
AcDbEntity
  8
0
  6
Continuous
 62
     4
100
AcDbLine
 10
-156.2964484589109
 20
-102.9316749459172
 30
0.0
 11
-155.2964484589109
 21
-102.9316749459172
 31
0.0
  0
LINE
  5
246
330
3A
100
AcDbEntity
  8
0
  6
Continuous
 62
     4
100
AcDbLine
 10
-156.2964484589109
 20
-207.9315529459172
 30
0.0
 11
-156.2964484589109
 21
-119.4316749459172
 31
0.0
  0
LINE
  5
247
330
3A
100
AcDbEntity
  8
0
  6
Continuous
 62
     4
100
AcDbLine
 10
-155.2964484589109
 20
-207.9315529459172
 30
0.0
 11
-156.2964484589109
 21
-207.9315529459172
 31
0.0
  0
LINE
  5
248
330
3A
100
AcDbEntity
  8
0
  6
LONG_DASHED
 62
     3
100
AcDbLine
 10
-172.4962774589109
 20
-100.4316749459172
 30
0.0
 11
-172.4962774589109
 21
-106.4316749459172
 31
0.0
  0
LINE
  5
249
330
3A
100
AcDbEntity
  8
0
  6
Continuous
 62
     4
100
AcDbLine
 10
-174.2964484589109
 20
-91.4316749459172
 30
0.0
 11
-174.2964484589109
 21
-119.4316749459172
 31
0.0
  0
LINE
  5
24A
330
3A
100
AcDbEntity
  8
0
  6
DASH_CENTER
 62
     3
100
AcDbLine
 10
15.6197552269492
 20
-28.1343084542617
 30
0.0
 11
15.6197552269492
 21
-26.1343084542617
 31
0.0
  0
LINE
  5
24B
330
3A
100
AcDbEntity
  8
0
  6
DASH_CENTER
 62
     3
100
AcDbLine
 10
-6.3802447730508
 20
-48.1343084542617
 30
0.0
 11
-4.3802447730508
 21
-48.1343084542617
 31
0.0
  0
LINE
  5
24C
330
3A
100
AcDbEntity
  8
0
  6
Continuous
 62
     4
100
AcDbLine
 10
15.6197552269492
 20
-28.1343084542617
 30
0.0
 11
44.6197552269492
 21
-28.1343084542617
 31
0.0
  0
LINE
  5
24D
330
3A
100
AcDbEntity
  8
0
  6
Continuous
 62
     4
100
AcDbLine
 10
48.6197552269492
 20
-24.1343084542617
 30
0.0
 11
48.6197552269492
 21
11.8656915457383
 31
0.0
  0
LINE
  5
24E
330
3A
100
AcDbEntity
  8
0
  6
DASH_CENTER
 62
     3
100
AcDbLine
 10
46.6197552269492
 20
3.8656915457383
 30
0.0
 11
60.6197552269492
 21
3.8656915457383
 31
0.0
  0
LINE
  5
24F
330
3A
100
AcDbEntity
  8
0
  6
DASH_CENTER
 62
     3
100
AcDbLine
 10
194.8697552269492
 20
3.8656915457383
 30
0.0
 11
267.6197552269492
 21
3.8656915457383
 31
0.0
  0
LINE
  5
250
330
3A
100
AcDbEntity
  8
0
  6
Continuous
 62
     4
100
AcDbLine
 10
83.6197552269492
 20
-8.1343084542617
 30
0.0
 11
261.6197552269492
 21
-8.1343084542617
 31
0.0
  0
LINE
  5
251
330
3A
100
AcDbEntity
  8
0
  6
Continuous
 62
     4
100
AcDbLine
 10
83.6197552269492
 20
-8.1343084542617
 30
0.0
 11
83.6197552269492
 21
-12.1343084542617
 31
0.0
  0
LINE
  5
252
330
3A
100
AcDbEntity
  8
0
  6
Continuous
 62
     4
100
AcDbLine
 10
83.6197552269492
 20
-12.1343084542617
 30
0.0
 11
70.6081622269492
 21
-47.88317445426169
 31
0.0
  0
LINE
  5
253
330
3A
100
AcDbEntity
  8
0
  6
Continuous
 62
     4
100
AcDbLine
 10
22.4601602269492
 20
-66.9281604542617
 30
0.0
 11
68.2174762269492
 21
-50.2738574542617
 31
0.0
  0
LINE
  5
254
330
3A
100
AcDbEntity
  8
0
  6
Continuous
 62
     4
100
AcDbLine
 10
72.6197552269492
 20
11.8656915457383
 30
0.0
 11
96.6197552269492
 21
11.8656915457383
 31
0.0
  0
LINE
  5
255
330
3A
100
AcDbEntity
  8
0
  6
Continuous
 62
     4
100
AcDbLine
 10
99.6197552269492
 20
8.8656915457383
 30
0.0
 11
99.6197552269492
 21
-1.1343084542617
 31
0.0
  0
LINE
  5
256
330
3A
100
AcDbEntity
  8
0
  6
Continuous
 62
     4
100
AcDbLine
 10
96.6197552269492
 20
-4.1343084542617
 30
0.0
 11
72.6197552269492
 21
-4.1343084542617
 31
0.0
  0
LINE
  5
257
330
3A
100
AcDbEntity
  8
0
  6
Continuous
 62
     4
100
AcDbLine
 10
69.6197552269492
 20
-1.1343084542617
 30
0.0
 11
69.6197552269492
 21
8.8656915457383
 31
0.0
  0
LINE
  5
258
330
3A
100
AcDbEntity
  8
0
  6
Continuous
 62
     4
100
AcDbLine
 10
120.6197552269492
 20
11.8656915457383
 30
0.0
 11
144.6197552269492
 21
11.8656915457383
 31
0.0
  0
LINE
  5
259
330
3A
100
AcDbEntity
  8
0
  6
Continuous
 62
     4
100
AcDbLine
 10
147.6197552269492
 20
8.8656915457383
 30
0.0
 11
147.6197552269492
 21
-1.1343084542617
 31
0.0
  0
LINE
  5
25A
330
3A
100
AcDbEntity
  8
0
  6
Continuous
 62
     4
100
AcDbLine
 10
144.6197552269492
 20
-4.1343084542617
 30
0.0
 11
120.6197552269492
 21
-4.1343084542617
 31
0.0
  0
LINE
  5
25B
330
3A
100
AcDbEntity
  8
0
  6
Continuous
 62
     4
100
AcDbLine
 10
117.6197552269492
 20
-1.1343084542617
 30
0.0
 11
117.6197552269492
 21
8.8656915457383
 31
0.0
  0
LINE
  5
25C
330
3A
100
AcDbEntity
  8
0
  6
Continuous
 62
     4
100
AcDbLine
 10
168.6197552269492
 20
-4.1343084542617
 30
0.0
 11
192.6197552269492
 21
-4.1343084542617
 31
0.0
  0
LINE
  5
25D
330
3A
100
AcDbEntity
  8
0
  6
Continuous
 62
     4
100
AcDbLine
 10
195.6197552269492
 20
-1.1343084542617
 30
0.0
 11
195.6197552269492
 21
8.8656915457383
 31
0.0
  0
LINE
  5
25E
330
3A
100
AcDbEntity
  8
0
  6
Continuous
 62
     4
100
AcDbLine
 10
192.6197552269492
 20
11.8656915457383
 30
0.0
 11
168.6197552269492
 21
11.8656915457383
 31
0.0
  0
LINE
  5
25F
330
3A
100
AcDbEntity
  8
0
  6
Continuous
 62
     4
100
AcDbLine
 10
165.6197552269492
 20
8.8656915457383
 30
0.0
 11
165.6197552269492
 21
-1.1343084542617
 31
0.0
  0
LINE
  5
260
330
3A
100
AcDbEntity
  8
0
  6
Continuous
 62
     4
100
AcDbLine
 10
216.6197552269492
 20
11.8656915457383
 30
0.0
 11
240.6197552269492
 21
11.8656915457383
 31
0.0
  0
LINE
  5
261
330
3A
100
AcDbEntity
  8
0
  6
Continuous
 62
     4
100
AcDbLine
 10
243.6197552269492
 20
8.8656915457383
 30
0.0
 11
243.6197552269492
 21
-1.1343084542617
 31
0.0
  0
LINE
  5
262
330
3A
100
AcDbEntity
  8
0
  6
Continuous
 62
     4
100
AcDbLine
 10
240.6197552269492
 20
-4.1343084542617
 30
0.0
 11
216.6197552269492
 21
-4.1343084542617
 31
0.0
  0
LINE
  5
263
330
3A
100
AcDbEntity
  8
0
  6
Continuous
 62
     4
100
AcDbLine
 10
213.6197552269492
 20
-1.1343084542617
 30
0.0
 11
213.6197552269492
 21
8.8656915457383
 31
0.0
  0
LINE
  5
264
330
3A
100
AcDbEntity
  8
0
  6
DASH_CENTER
 62
     3
100
AcDbLine
 10
99.6197552269492
 20
3.8656915457383
 30
0.0
 11
117.6197552269492
 21
3.8656915457383
 31
0.0
  0
LINE
  5
265
330
3A
100
AcDbEntity
  8
0
  6
DASH_CENTER
 62
     3
100
AcDbLine
 10
147.6197552269492
 20
3.8656915457383
 30
0.0
 11
165.6197552269492
 21
3.8656915457383
 31
0.0
  0
LINE
  5
266
330
3A
100
AcDbEntity
  8
1
  6
DASH_CENTER
 62
     3
100
AcDbLine
 10
60.6197552269492
 20
3.8656915457383
 30
0.0
 11
60.6197552269492
 21
12.51317528648821
 31
0.0
  0
LINE
  5
267
330
3A
100
AcDbEntity
  8
0
  6
DASH_CENTER
 62
     3
100
AcDbLine
 10
66.8197552269492
 20
3.8656915457383
 30
0.0
 11
69.6197552269492
 21
3.8656915457383
 31
0.0
  0
LINE
  5
268
330
3A
100
AcDbEntity
  8
0
  6
DASH_CENTER
 62
     3
100
AcDbLine
 10
63.8197552269492
 20
3.8656915457383
 30
0.0
 11
66.8197552269492
 21
3.8656915457383
 31
0.0
  0
LINE
  5
269
330
3A
100
AcDbEntity
  8
1
  6
DASH_CENTER
 62
     3
100
AcDbLine
 10
60.6197552269492
 20
3.8656915457383
 30
0.0
 11
60.6197552269492
 21
-4.4941063389716
 31
0.0
  0
LINE
  5
26A
330
3A
100
AcDbEntity
  8
0
  6
DASH_CENTER
 62
     3
100
AcDbLine
 10
60.6197552269492
 20
3.8656915457383
 30
0.0
 11
63.8197552269492
 21
3.8656915457383
 31
0.0
  0
LINE
  5
26B
330
3A
100
AcDbEntity
  8
1
  6
DASH_CENTER
 62
     3
100
AcDbLine
 10
108.6197552269492
 20
3.8656915457383
 30
0.0
 11
108.6197552269492
 21
-4.4941063389716
 31
0.0
  0
LINE
  5
26C
330
3A
100
AcDbEntity
  8
1
  6
DASH_CENTER
 62
     3
100
AcDbLine
 10
108.6197552269492
 20
3.8656915457383
 30
0.0
 11
108.6197552269492
 21
12.51317528648821
 31
0.0
  0
LINE
  5
26D
330
3A
100
AcDbEntity
  8
1
  6
DASH_CENTER
 62
     3
100
AcDbLine
 10
156.6197552269492
 20
3.8656915457383
 30
0.0
 11
156.6197552269492
 21
-4.4941063389716
 31
0.0
  0
LINE
  5
26E
330
3A
100
AcDbEntity
  8
1
  6
DASH_CENTER
 62
     3
100
AcDbLine
 10
156.6197552269492
 20
3.8656915457383
 30
0.0
 11
156.6197552269492
 21
12.51317528648821
 31
0.0
  0
LINE
  5
26F
330
3A
100
AcDbEntity
  8
1
  6
DASH_CENTER
 62
     3
100
AcDbLine
 10
204.6197552269492
 20
3.8656915457383
 30
0.0
 11
204.6197552269492
 21
12.51317528648821
 31
0.0
  0
LINE
  5
270
330
3A
100
AcDbEntity
  8
1
  6
DASH_CENTER
 62
     3
100
AcDbLine
 10
204.6197552269492
 20
3.8656915457383
 30
0.0
 11
204.6197552269492
 21
-4.4941063389716
 31
0.0
  0
LINE
  5
271
330
3A
100
AcDbEntity
  8
1
  6
DASH_CENTER
 62
     3
100
AcDbLine
 10
252.6197552269492
 20
3.8656915457383
 30
0.0
 11
252.6197552269492
 21
12.51317528648821
 31
0.0
  0
LINE
  5
272
330
3A
100
AcDbEntity
  8
1
  6
DASH_CENTER
 62
     3
100
AcDbLine
 10
252.6197552269492
 20
3.8656915457383
 30
0.0
 11
252.6197552269492
 21
-4.4941063389716
 31
0.0
  0
LINE
  5
273
330
3A
100
AcDbEntity
  8
1
  6
Continuous
 62
     4
100
AcDbLine
 10
25.81155076846844
 20
-43.25401095925314
 30
0.0
 11
20.09788915378849
 21
-42.75413034074278
 31
0.0
  0
LINE
  5
274
330
3A
100
AcDbEntity
  8
1
  6
Continuous
 62
     4
100
AcDbLine
 10
12.14391234169998
 20
-42.05824753973262
 30
0.0
 11
6.43025072702912
 21
-41.55836692123317
 31
0.0
  0
LINE
  5
275
330
3A
100
AcDbEntity
  8
1
  6
Continuous
 62
     4
100
AcDbLine
 10
11.14162130009899
 20
-53.51448656779154
 30
0.0
 11
5.42795968542996
 21
-53.01460594928118
 31
0.0
  0
LINE
  5
276
330
3A
100
AcDbEntity
  8
1
  6
Continuous
 62
     4
100
AcDbLine
 10
24.80925972686928
 20
-54.71024998730114
 30
0.0
 11
19.09559811217841
 21
-54.21036936879078
 31
0.0
  0
LINE
  5
277
330
3A
100
AcDbEntity
  8
1
  6
Continuous
 62
     4
100
AcDbLine
 10
-4.3802447730508
 20
54.8656915457383
 30
0.0
 11
83.6197552269492
 21
54.8656915457383
 31
0.0
  0
LINE
  5
278
330
3A
100
AcDbEntity
  8
1
  6
Continuous
 62
     4
100
AcDbLine
 10
-4.3802447730508
 20
54.8656915457383
 30
0.0
 11
-3.88237086986046
 21
64.3656915457383
 31
0.0
  0
LINE
  5
279
330
3A
100
AcDbEntity
  8
1
  6
Continuous
 62
     4
100
AcDbLine
 10
-4.3802447730508
 20
54.8656915457383
 30
0.0
 11
-3.88237086987138
 21
45.3656915457383
 31
0.0
  0
LINE
  5
27A
330
3A
100
AcDbEntity
  8
1
  6
Continuous
 62
     4
100
AcDbLine
 10
-3.88237086986046
 20
64.3656915457383
 30
0.0
 11
15.6197552269492
 21
64.3656915457383
 31
0.0
  0
LINE
  5
27B
330
3A
100
AcDbEntity
  8
1
  6
Continuous
 62
     4
100
AcDbLine
 10
-3.88237086987138
 20
45.3656915457383
 30
0.0
 11
15.6197552269492
 21
45.3656915457383
 31
0.0
  0
LINE
  5
27C
330
3A
100
AcDbEntity
  8
1
  6
Continuous
 62
     4
100
AcDbLine
 10
35.12188132375886
 20
64.3656915457383
 30
0.0
 11
35.35771633053324
 21
59.8656915457383
 31
0.0
  0
LINE
  5
27D
330
3A
100
AcDbEntity
  8
1
  6
Continuous
 62
     4
100
AcDbLine
 10
35.12188132375886
 20
45.3656915457383
 30
0.0
 11
35.35771633053324
 21
49.8656915457383
 31
0.0
  0
LINE
  5
27E
330
3A
100
AcDbEntity
  8
1
  6
DASH_CENTER
 62
     3
100
AcDbLine
 10
15.6197552269492
 20
45.3656915457383
 30
0.0
 11
15.6197552269492
 21
64.3656915457383
 31
0.0
  0
LINE
  5
27F
330
3A
100
AcDbEntity
  8
0
  6
Continuous
 62
     4
100
AcDbLine
 10
265.6197552269492
 20
11.8656915457383
 30
0.0
 11
265.6197552269492
 21
-4.1343084542617
 31
0.0
  0
LINE
  5
280
330
3A
100
AcDbEntity
  8
1
  6
DASH_CENTER
 62
     3
100
AcDbLine
 10
156.6197552269492
 20
59.8656915457383
 30
0.0
 11
156.6197552269492
 21
49.8656915457383
 31
0.0
  0
LINE
  5
281
330
3A
100
AcDbEntity
  8
1
  6
Continuous
 62
     4
100
AcDbLine
 10
265.6197552269492
 20
54.8656915457383
 30
0.0
 11
265.357716330534
 21
59.8656915457383
 31
0.0
  0
LINE
  5
282
330
3A
100
AcDbEntity
  8
1
  6
Continuous
 62
     4
100
AcDbLine
 10
265.6197552269492
 20
54.8656915457383
 30
0.0
 11
265.357716330534
 21
49.8656915457383
 31
0.0
  0
LINE
  5
283
330
3A
100
AcDbEntity
  8
1
  6
Continuous
 62
     4
100
AcDbLine
 10
162.8197552269492
 20
59.8656915457383
 30
0.0
 11
265.357716330534
 21
59.8656915457383
 31
0.0
  0
LINE
  5
284
330
3A
100
AcDbEntity
  8
1
  6
Continuous
 62
     4
100
AcDbLine
 10
156.6197552269492
 20
59.8656915457383
 30
0.0
 11
150.4197552269492
 21
59.8656915457383
 31
0.0
  0
LINE
  5
285
330
3A
100
AcDbEntity
  8
1
  6
Continuous
 62
     4
100
AcDbLine
 10
156.6197552269492
 20
49.8656915457383
 30
0.0
 11
26.79068528118785
 21
49.8656915457383
 31
0.0
  0
LINE
  5
286
330
3A
100
AcDbEntity
  8
1
  6
Continuous
 62
     4
100
AcDbLine
 10
162.8197552269492
 20
59.8656915457383
 30
0.0
 11
156.6197552269492
 21
59.8656915457383
 31
0.0
  0
LINE
  5
287
330
3A
100
AcDbEntity
  8
1
  6
Continuous
 62
     4
100
AcDbLine
 10
265.357716330534
 20
49.8656915457383
 30
0.0
 11
156.6197552269492
 21
49.8656915457383
 31
0.0
  0
LINE
  5
288
330
3A
100
AcDbEntity
  8
1
  6
LONG_DASHED
 62
     3
100
AcDbLine
 10
162.8197552269492
 20
59.8656915457383
 30
0.0
 11
159.8197552269492
 21
56.8656915457383
 31
0.0
  0
LINE
  5
289
330
3A
100
AcDbEntity
  8
1
  6
LONG_DASHED
 62
     3
100
AcDbLine
 10
159.8197552269492
 20
56.8656915457383
 30
0.0
 11
159.8197552269492
 21
52.8656915457383
 31
0.0
  0
LINE
  5
28A
330
3A
100
AcDbEntity
  8
1
  6
LONG_DASHED
 62
     3
100
AcDbLine
 10
153.4197552269492
 20
56.8656915457383
 30
0.0
 11
153.4197552269492
 21
52.8656915457383
 31
0.0
  0
LINE
  5
28B
330
3A
100
AcDbEntity
  8
1
  6
LONG_DASHED
 62
     3
100
AcDbLine
 10
153.4197552269492
 20
56.8656915457383
 30
0.0
 11
150.4197552269492
 21
59.8656915457383
 31
0.0
  0
LINE
  5
28C
330
3A
100
AcDbEntity
  8
1
  6
LONG_DASHED
 62
     3
100
AcDbLine
 10
153.4197552269492
 20
56.8656915457383
 30
0.0
 11
159.8197552269492
 21
56.8656915457383
 31
0.0
  0
LINE
  5
28D
330
3A
100
AcDbEntity
  8
1
  6
LONG_DASHED
 62
     3
100
AcDbLine
 10
159.8197552269492
 20
52.8656915457383
 30
0.0
 11
153.4197552269492
 21
52.8656915457383
 31
0.0
  0
LINE
  5
28E
330
3A
100
AcDbEntity
  8
1
  6
LONG_DASHED
 62
     3
100
AcDbLine
 10
159.8197552269492
 20
52.8656915457383
 30
0.0
 11
162.8197552269492
 21
49.8656915457383
 31
0.0
  0
LINE
  5
28F
330
3A
100
AcDbEntity
  8
1
  6
LONG_DASHED
 62
     3
100
AcDbLine
 10
150.4197552269492
 20
49.8656915457383
 30
0.0
 11
153.4197552269492
 21
52.8656915457383
 31
0.0
  0
LINE
  5
290
330
3A
100
AcDbEntity
  8
1
  6
DASH_CENTER
 62
     3
100
AcDbLine
 10
204.6197552269492
 20
59.8656915457383
 30
0.0
 11
204.6197552269492
 21
49.8656915457383
 31
0.0
  0
LINE
  5
291
330
3A
100
AcDbEntity
  8
1
  6
LONG_DASHED
 62
     3
100
AcDbLine
 10
201.4197552269492
 20
56.8656915457383
 30
0.0
 11
198.4197552269492
 21
59.8656915457383
 31
0.0
  0
LINE
  5
292
330
3A
100
AcDbEntity
  8
1
  6
LONG_DASHED
 62
     3
100
AcDbLine
 10
210.8197552269492
 20
59.8656915457383
 30
0.0
 11
207.8197552269492
 21
56.8656915457383
 31
0.0
  0
LINE
  5
293
330
3A
100
AcDbEntity
  8
1
  6
LONG_DASHED
 62
     3
100
AcDbLine
 10
207.8197552269492
 20
52.8656915457383
 30
0.0
 11
210.8197552269492
 21
49.8656915457383
 31
0.0
  0
LINE
  5
294
330
3A
100
AcDbEntity
  8
1
  6
LONG_DASHED
 62
     3
100
AcDbLine
 10
198.4197552269492
 20
49.8656915457383
 30
0.0
 11
201.4197552269492
 21
52.8656915457383
 31
0.0
  0
LINE
  5
295
330
3A
100
AcDbEntity
  8
1
  6
LONG_DASHED
 62
     3
100
AcDbLine
 10
201.4197552269492
 20
56.8656915457383
 30
0.0
 11
201.4197552269492
 21
52.8656915457383
 31
0.0
  0
LINE
  5
296
330
3A
100
AcDbEntity
  8
1
  6
LONG_DASHED
 62
     3
100
AcDbLine
 10
207.8197552269492
 20
56.8656915457383
 30
0.0
 11
207.8197552269492
 21
52.8656915457383
 31
0.0
  0
LINE
  5
297
330
3A
100
AcDbEntity
  8
1
  6
LONG_DASHED
 62
     3
100
AcDbLine
 10
201.4197552269492
 20
56.8656915457383
 30
0.0
 11
207.8197552269492
 21
56.8656915457383
 31
0.0
  0
LINE
  5
298
330
3A
100
AcDbEntity
  8
1
  6
LONG_DASHED
 62
     3
100
AcDbLine
 10
207.8197552269492
 20
52.8656915457383
 30
0.0
 11
201.4197552269492
 21
52.8656915457383
 31
0.0
  0
LINE
  5
299
330
3A
100
AcDbEntity
  8
1
  6
LONG_DASHED
 62
     3
100
AcDbLine
 10
249.4197552269492
 20
56.8656915457383
 30
0.0
 11
246.4197552269492
 21
59.8656915457383
 31
0.0
  0
LINE
  5
29A
330
3A
100
AcDbEntity
  8
1
  6
LONG_DASHED
 62
     3
100
AcDbLine
 10
246.4197552269492
 20
49.8656915457383
 30
0.0
 11
249.4197552269492
 21
52.8656915457383
 31
0.0
  0
LINE
  5
29B
330
3A
100
AcDbEntity
  8
1
  6
LONG_DASHED
 62
     3
100
AcDbLine
 10
249.4197552269492
 20
56.8656915457383
 30
0.0
 11
249.4197552269492
 21
52.8656915457383
 31
0.0
  0
LINE
  5
29C
330
3A
100
AcDbEntity
  8
1
  6
LONG_DASHED
 62
     3
100
AcDbLine
 10
249.4197552269492
 20
56.8656915457383
 30
0.0
 11
255.8197552269492
 21
56.8656915457383
 31
0.0
  0
LINE
  5
29D
330
3A
100
AcDbEntity
  8
1
  6
LONG_DASHED
 62
     3
100
AcDbLine
 10
255.8197552269492
 20
52.8656915457383
 30
0.0
 11
249.4197552269492
 21
52.8656915457383
 31
0.0
  0
LINE
  5
29E
330
3A
100
AcDbEntity
  8
1
  6
DASH_CENTER
 62
     3
100
AcDbLine
 10
252.6197552269492
 20
59.8656915457383
 30
0.0
 11
252.6197552269492
 21
49.8656915457383
 31
0.0
  0
LINE
  5
29F
330
3A
100
AcDbEntity
  8
1
  6
LONG_DASHED
 62
     3
100
AcDbLine
 10
258.8197552269492
 20
59.8656915457383
 30
0.0
 11
255.8197552269492
 21
56.8656915457383
 31
0.0
  0
LINE
  5
2A0
330
3A
100
AcDbEntity
  8
1
  6
LONG_DASHED
 62
     3
100
AcDbLine
 10
255.8197552269492
 20
52.8656915457383
 30
0.0
 11
258.8197552269492
 21
49.8656915457383
 31
0.0
  0
LINE
  5
2A1
330
3A
100
AcDbEntity
  8
1
  6
LONG_DASHED
 62
     3
100
AcDbLine
 10
255.8197552269492
 20
56.8656915457383
 30
0.0
 11
255.8197552269492
 21
52.8656915457383
 31
0.0
  0
LINE
  5
2A2
330
3A
100
AcDbEntity
  8
1
  6
LONG_DASHED
 62
     3
100
AcDbLine
 10
105.4197552269492
 20
56.8656915457383
 30
0.0
 11
102.4197552269492
 21
59.8656915457383
 31
0.0
  0
LINE
  5
2A3
330
3A
100
AcDbEntity
  8
1
  6
LONG_DASHED
 62
     3
100
AcDbLine
 10
105.4197552269492
 20
56.8656915457383
 30
0.0
 11
105.4197552269492
 21
52.8656915457383
 31
0.0
  0
LINE
  5
2A4
330
3A
100
AcDbEntity
  8
1
  6
LONG_DASHED
 62
     3
100
AcDbLine
 10
111.8197552269492
 20
52.8656915457383
 30
0.0
 11
105.4197552269492
 21
52.8656915457383
 31
0.0
  0
LINE
  5
2A5
330
3A
100
AcDbEntity
  8
1
  6
LONG_DASHED
 62
     3
100
AcDbLine
 10
102.4197552269492
 20
49.8656915457383
 30
0.0
 11
105.4197552269492
 21
52.8656915457383
 31
0.0
  0
LINE
  5
2A6
330
3A
100
AcDbEntity
  8
1
  6
DASH_CENTER
 62
     3
100
AcDbLine
 10
108.6197552269492
 20
59.8656915457383
 30
0.0
 11
108.6197552269492
 21
49.8656915457383
 31
0.0
  0
LINE
  5
2A7
330
3A
100
AcDbEntity
  8
1
  6
LONG_DASHED
 62
     3
100
AcDbLine
 10
114.8197552269492
 20
59.8656915457383
 30
0.0
 11
111.8197552269492
 21
56.8656915457383
 31
0.0
  0
LINE
  5
2A8
330
3A
100
AcDbEntity
  8
1
  6
LONG_DASHED
 62
     3
100
AcDbLine
 10
111.8197552269492
 20
52.8656915457383
 30
0.0
 11
114.8197552269492
 21
49.8656915457383
 31
0.0
  0
LINE
  5
2A9
330
3A
100
AcDbEntity
  8
1
  6
LONG_DASHED
 62
     3
100
AcDbLine
 10
111.8197552269492
 20
56.8656915457383
 30
0.0
 11
111.8197552269492
 21
52.8656915457383
 31
0.0
  0
LINE
  5
2AA
330
3A
100
AcDbEntity
  8
1
  6
LONG_DASHED
 62
     3
100
AcDbLine
 10
105.4197552269492
 20
56.8656915457383
 30
0.0
 11
111.8197552269492
 21
56.8656915457383
 31
0.0
  0
LINE
  5
2AB
330
3A
100
AcDbEntity
  8
1
  6
DASH_CENTER
 62
     3
100
AcDbLine
 10
60.6197552269492
 20
59.8656915457383
 30
0.0
 11
60.6197552269492
 21
49.8656915457383
 31
0.0
  0
LINE
  5
2AC
330
3A
100
AcDbEntity
  8
1
  6
LONG_DASHED
 62
     3
100
AcDbLine
 10
57.41975522694921
 20
56.8656915457383
 30
0.0
 11
54.4197552269492
 21
59.8656915457383
 31
0.0
  0
LINE
  5
2AD
330
3A
100
AcDbEntity
  8
1
  6
LONG_DASHED
 62
     3
100
AcDbLine
 10
54.4197552269492
 20
49.8656915457383
 30
0.0
 11
57.41975522694921
 21
52.8656915457383
 31
0.0
  0
LINE
  5
2AE
330
3A
100
AcDbEntity
  8
1
  6
LONG_DASHED
 62
     3
100
AcDbLine
 10
57.41975522694921
 20
56.8656915457383
 30
0.0
 11
57.41975522694921
 21
52.8656915457383
 31
0.0
  0
LINE
  5
2AF
330
3A
100
AcDbEntity
  8
1
  6
LONG_DASHED
 62
     3
100
AcDbLine
 10
57.41975522694921
 20
56.8656915457383
 30
0.0
 11
63.8197552269492
 21
56.8656915457383
 31
0.0
  0
LINE
  5
2B0
330
3A
100
AcDbEntity
  8
1
  6
LONG_DASHED
 62
     3
100
AcDbLine
 10
63.8197552269492
 20
52.8656915457383
 30
0.0
 11
57.41975522694921
 21
52.8656915457383
 31
0.0
  0
LINE
  5
2B1
330
3A
100
AcDbEntity
  8
1
  6
LONG_DASHED
 62
     3
100
AcDbLine
 10
66.8197552269492
 20
59.8656915457383
 30
0.0
 11
63.8197552269492
 21
56.8656915457383
 31
0.0
  0
LINE
  5
2B2
330
3A
100
AcDbEntity
  8
1
  6
LONG_DASHED
 62
     3
100
AcDbLine
 10
63.8197552269492
 20
56.8656915457383
 30
0.0
 11
63.8197552269492
 21
52.8656915457383
 31
0.0
  0
LINE
  5
2B3
330
3A
100
AcDbEntity
  8
1
  6
LONG_DASHED
 62
     3
100
AcDbLine
 10
63.8197552269492
 20
52.8656915457383
 30
0.0
 11
66.8197552269492
 21
49.8656915457383
 31
0.0
  0
LINE
  5
2B4
330
3A
100
AcDbEntity
  8
0
  6
Continuous
 62
     4
100
AcDbLine
 10
-53.8802447730508
 20
-68.1343084542617
 30
0.0
 11
-63.38012277305079
 21
-67.22952345426175
 31
0.0
  0
LINE
  5
2B5
330
3A
100
AcDbEntity
  8
0
  6
Continuous
 62
     4
100
AcDbLine
 10
-44.3802447730508
 20
-67.22952345426175
 30
0.0
 11
-53.8802447730508
 21
-68.1343084542617
 31
0.0
  0
LINE
  5
2B6
330
3A
100
AcDbEntity
  8
0
  6
Continuous
 62
     4
100
AcDbLine
 10
-48.88004677305081
 20
-2.33438145426176
 30
0.0
 11
-48.87998577305081
 21
-7.60885645426176
 31
0.0
  0
LINE
  5
2B7
330
3A
100
AcDbEntity
  8
0
  6
LONG_DASHED
 62
     3
100
AcDbLine
 10
-52.08007377305079
 20
0.86556954573824
 30
0.0
 11
-48.88004677305081
 21
-2.33438145426176
 31
0.0
  0
LINE
  5
2B8
330
3A
100
AcDbEntity
  8
0
  6
LONG_DASHED
 62
     3
100
AcDbLine
 10
-55.67992777305081
 20
0.86556954573824
 30
0.0
 11
-52.08007377305079
 21
0.86556954573824
 31
0.0
  0
LINE
  5
2B9
330
3A
100
AcDbEntity
  8
0
  6
LONG_DASHED
 62
     3
100
AcDbLine
 10
-58.88023677305082
 20
-2.33462545426176
 30
0.0
 11
-55.67992777305081
 21
0.86556954573824
 31
0.0
  0
LINE
  5
2BA
330
3A
100
AcDbEntity
  8
0
  6
Continuous
 62
     4
100
AcDbLine
 10
-53.8802447730508
 20
-8.13443045426176
 30
0.0
 11
-58.88023677305082
 21
-7.60891745426176
 31
0.0
  0
LINE
  5
2BB
330
3A
100
AcDbEntity
  8
0
  6
Continuous
 62
     4
100
AcDbLine
 10
-48.87998577305081
 20
-7.60885645426176
 30
0.0
 11
-53.8802447730508
 21
-8.13443045426176
 31
0.0
  0
LINE
  5
2BC
330
3A
100
AcDbEntity
  8
0
  6
Continuous
 62
     4
100
AcDbLine
 10
-48.8802447730508
 20
15.34005654573824
 30
0.0
 11
-48.88018377305081
 21
10.06539854573825
 31
0.0
  0
LINE
  5
2BD
330
3A
100
AcDbEntity
  8
0
  6
Continuous
 62
     4
100
AcDbLine
 10
-53.8802447730508
 20
15.86556954573824
 30
0.0
 11
-48.8802447730508
 21
15.34005654573824
 31
0.0
  0
LINE
  5
2BE
330
3A
100
AcDbEntity
  8
0
  6
Continuous
 62
     4
100
AcDbLine
 10
-58.8802447730508
 20
15.34005654573824
 30
0.0
 11
-53.8802447730508
 21
15.86556954573824
 31
0.0
  0
LINE
  5
2BF
330
3A
100
AcDbEntity
  8
0
  6
LONG_DASHED
 62
     3
100
AcDbLine
 10
-55.68025577305081
 20
6.86563054573824
 30
0.0
 11
-58.8801527730508
 21
10.06545954573823
 31
0.0
  0
LINE
  5
2C0
330
3A
100
AcDbEntity
  8
0
  6
LONG_DASHED
 62
     3
100
AcDbLine
 10
-52.08007377305079
 20
6.86556954573824
 30
0.0
 11
-55.68025577305081
 21
6.86563054573824
 31
0.0
  0
LINE
  5
2C1
330
3A
100
AcDbEntity
  8
0
  6
LONG_DASHED
 62
     3
100
AcDbLine
 10
-48.88018377305081
 20
10.06539854573825
 30
0.0
 11
-52.08007377305079
 21
6.86556954573824
 31
0.0
  0
LINE
  5
2C2
330
3A
100
AcDbEntity
  8
0
  6
Continuous
 62
     4
100
AcDbLine
 10
-48.87998577305081
 20
-7.60885645426176
 30
0.0
 11
-48.87975677305081
 21
-28.61074845426172
 31
0.0
  0
LINE
  5
2C3
330
3A
100
AcDbEntity
  8
0
  6
Continuous
 62
     4
100
AcDbLine
 10
-48.88018377305081
 20
10.06539854573825
 30
0.0
 11
-48.88004677305081
 21
-2.33438145426176
 31
0.0
  0
LINE
  5
2C4
330
3A
100
AcDbEntity
  8
0
  6
Continuous
 62
     4
100
AcDbLine
 10
-58.88023677305082
 20
-7.60891745426176
 30
0.0
 11
-58.8802447730508
 21
-28.61050445426177
 31
0.0
  0
LINE
  5
2C5
330
3A
100
AcDbEntity
  8
0
  6
LONG_DASHED
 62
     3
100
AcDbLine
 10
-52.08007377305079
 20
6.86556954573824
 30
0.0
 11
-52.08007377305079
 21
0.86556954573824
 31
0.0
  0
LINE
  5
2C6
330
3A
100
AcDbEntity
  8
1
  6
Continuous
 62
     4
100
AcDbLine
 10
-63.38012277305079
 20
-67.22952345426175
 30
0.0
 11
-63.38012277305079
 21
-29.03909345426176
 31
0.0
  0
LINE
  5
2C7
330
3A
100
AcDbEntity
  8
1
  6
Continuous
 62
     4
100
AcDbLine
 10
-58.88023677305082
 20
10.06545954573823
 30
0.0
 11
-58.88023677305082
 21
-7.60891745426176
 31
0.0
  0
LINE
  5
2C8
330
3A
100
AcDbEntity
  8
1
  6
Continuous
 62
     4
100
AcDbLine
 10
-58.8801527730508
 20
10.06545954573823
 30
0.0
 11
-58.8801527730508
 21
15.34005654573824
 31
0.0
  0
LINE
  5
2C9
330
3A
100
AcDbEntity
  8
1
  6
LONG_DASHED
 62
     3
100
AcDbLine
 10
-55.67992777305081
 20
0.86556954573824
 30
0.0
 11
-55.67992777305081
 21
6.86563054573824
 31
0.0
  0
LINE
  5
2CA
330
3A
100
AcDbEntity
  8
1
  6
Continuous
 62
     4
100
AcDbLine
 10
-44.3802447730508
 20
-48.1343084542617
 30
0.0
 11
-44.3802447730508
 21
-67.22952345426175
 31
0.0
  0
LINE
  5
2CB
330
3A
100
AcDbEntity
  8
1
  6
Continuous
 62
     4
100
AcDbLine
 10
-44.3802447730508
 20
-48.1343084542617
 30
0.0
 11
-44.3802447730508
 21
-29.03909345426176
 31
0.0
  0
LINE
  5
2CC
330
3A
100
AcDbEntity
  8
0
  6
Continuous
 62
     4
100
AcDbLine
 10
52.6197552269492
 20
15.8656915457383
 30
0.0
 11
261.6197552269492
 21
15.86569154573831
 31
0.0
  0
LINE
  5
2CD
330
3A
100
AcDbEntity
  8
1
  6
Continuous
 62
     4
100
AcDbLine
 10
-48.87993642851993
 20
-12.1343084542617
 30
0.0
 11
-58.88023931551655
 21
-12.1343084542617
 31
0.0
  0
LINE
  5
2CE
330
3A
100
AcDbEntity
  8
1
  6
LONG_DASHED
 62
     3
100
AcDbLine
 10
-176.0961314589109
 20
-106.4316749459172
 30
0.0
 11
-176.0961314589109
 21
-100.4316139459172
 31
0.0
  0
LINE
  5
2CF
330
3A
100
AcDbEntity
  8
1
  6
Continuous
 62
     4
100
AcDbLine
 10
-179.2964404589109
 20
-109.6318699459172
 30
0.0
 11
-179.2964404589109
 21
-97.23178494591721
 31
0.0
  0
LINE
  5
2D0
330
3A
100
AcDbEntity
  8
0
  6
DASH_CENTER
 62
     3
100
AcDbLine
 10
-183.1426495745319
 20
-103.4316749459172
 30
0.0
 11
-165.4214484589109
 21
-103.4316749459172
 31
0.0
  0
LINE
  5
2D1
330
3A
100
AcDbEntity
  8
0
  6
DASH_CENTER
 62
     3
100
AcDbLine
 10
-149.0427021660919
 20
-155.4316749459172
 30
0.0
 11
-192.2964484589109
 21
-155.4316749459172
 31
0.0
  0
LINE
  5
2D2
330
3A
100
AcDbEntity
  8
0
  6
DASH_CENTER
 62
     3
100
AcDbLine
 10
-4.3802447730508
 20
-48.1343084542617
 30
0.0
 11
15.6197552269492
 21
-48.1343084542617
 31
0.0
  0
LINE
  5
2D3
330
3A
100
AcDbEntity
  8
1
  6
DASH_CENTER
 62
     3
100
AcDbLine
 10
-44.3802447730508
 20
-48.1343084542617
 30
0.0
 11
-63.38011477305081
 21
-48.1343084542617
 31
0.0
  0
LINE
  5
2D4
330
3A
100
AcDbEntity
  8
0
  6
DASH_CENTER
 62
     3
100
AcDbLine
 10
15.6197552269492
 20
-48.1343084542617
 30
0.0
 11
15.6197552269492
 21
-28.1343084542617
 31
0.0
  0
LINE
  5
2D5
330
3A
100
AcDbEntity
  8
1
  6
DASH_CENTER
 62
     3
100
AcDbLine
 10
15.6197552269492
 20
-48.1343084542617
 30
0.0
 11
15.6197552269492
 21
-70.4316749459171
 31
0.0
  0
LINE
  5
2D6
330
3A
100
AcDbEntity
  8
0
  6
DASH_CENTER
 62
     3
100
AcDbLine
 10
15.6197552269492
 20
-48.1343084542617
 30
0.0
 11
37.6197552269492
 21
-48.1343084542617
 31
0.0
  0
LINE
  5
2D7
330
3A
100
AcDbEntity
  8
0
  6
Continuous
 62
     4
100
AcDbLine
 10
-157.8965464589109
 20
-119.4316749459172
 30
0.0
 11
-157.8965464589109
 21
-108.9029879459172
 31
0.0
  0
LINE
  5
2D8
330
3A
100
AcDbEntity
  8
0
  6
Continuous
 62
     4
100
AcDbLine
 10
-156.2964484589109
 20
-119.4316749459172
 30
0.0
 11
-156.2964484589109
 21
-102.9316749459172
 31
0.0
  0
LINE
  5
2D9
330
3A
100
AcDbEntity
  8
1
  6
Continuous
 62
     4
100
AcDbLine
 10
-155.296448458911
 20
-119.4316749459171
 30
0.0
 11
-155.2964484589109
 21
-102.9316749459172
 31
0.0
  0
LINE
  5
2DA
330
3A
100
AcDbEntity
  8
1
  6
Continuous
 62
     4
100
AcDbLine
 10
-155.2964484589109
 20
-207.9315529459172
 30
0.0
 11
-155.2964484589109
 21
-201.4316749459172
 31
0.0
  0
LINE
  5
2DB
330
3A
100
AcDbEntity
  8
0
  6
LONG_DASHED
 62
     3
100
AcDbLine
 10
91.6197552269492
 20
-119.4316749459171
 30
0.0
 11
297.4197582269492
 21
-119.4316749459171
 31
0.0
  0
LINE
  5
2DC
330
3A
100
AcDbEntity
  8
1
  6
PHANTOM
 62
     3
100
AcDbLine
 10
268.1197519269492
 20
-124.4316749459172
 30
0.0
 11
257.1197585269492
 21
-124.4316749459172
 31
0.0
  0
LINE
  5
2DD
330
3A
100
AcDbEntity
  8
1
  6
PHANTOM
 62
     3
100
AcDbLine
 10
262.6197552269492
 20
-118.9316782459172
 30
0.0
 11
262.6197552269492
 21
-129.9316716459172
 31
0.0
  0
LINE
  5
2DE
330
3A
100
AcDbEntity
  8
1
  6
PHANTOM
 62
     3
100
AcDbLine
 10
268.1197519269492
 20
-186.4316749459172
 30
0.0
 11
257.1197585269492
 21
-186.4316749459172
 31
0.0
  0
LINE
  5
2DF
330
3A
100
AcDbEntity
  8
1
  6
PHANTOM
 62
     3
100
AcDbLine
 10
262.6197552269492
 20
-180.9316782459172
 30
0.0
 11
262.6197552269492
 21
-191.9316716459172
 31
0.0
  0
LINE
  5
2E0
330
3A
100
AcDbEntity
  8
1
  6
PHANTOM
 62
     3
100
AcDbLine
 10
92.11975192694918
 20
-186.4316749459171
 30
0.0
 11
81.11975852694921
 21
-186.4316749459171
 31
0.0
  0
LINE
  5
2E1
330
3A
100
AcDbEntity
  8
1
  6
PHANTOM
 62
     3
100
AcDbLine
 10
86.6197552269492
 20
-180.9316782459171
 30
0.0
 11
86.6197552269492
 21
-191.9316716459171
 31
0.0
  0
LINE
  5
2E2
330
3A
100
AcDbEntity
  8
1
  6
Continuous
 62
     3
100
AcDbLine
 10
69.97021416375173
 20
59.3656915457383
 30
0.0
 11
69.97021416375173
 21
50.3656915457383
 31
0.0
  0
LINE
  5
2E3
330
3A
100
AcDbEntity
  8
1
  6
Continuous
 62
     4
100
AcDbLine
 10
26.79068528118785
 20
59.8656915457383
 30
0.0
 11
150.4197552269492
 21
59.8656915457383
 31
0.0
  0
LINE
  5
2E4
330
3A
100
AcDbEntity
  8
1
  6
Continuous
 62
     4
100
AcDbLine
 10
-187.7963114589109
 20
-181.3516699459171
 30
0.0
 11
-162.7963184589109
 21
-181.3516699459171
 31
0.0
  0
LINE
  5
2E5
330
3A
100
AcDbEntity
  8
0
  6
Continuous
 62
     4
100
AcDbLine
 10
-162.7963144589754
 20
-161.2603033663216
 30
0.0
 11
-161.4364634589109
 21
-161.3315769459172
 31
0.0
  0
LINE
  5
2E6
330
3A
100
AcDbEntity
  8
0
  6
Continuous
 62
     4
100
AcDbLine
 10
-162.7963144588659
 20
-149.6030353622745
 30
0.0
 11
-161.4364634589109
 21
-149.5317729459172
 31
0.0
  0
LINE
  5
2E7
330
3A
100
AcDbEntity
  8
1
  6
Continuous
 62
     4
100
AcDbLine
 10
-162.7963144588659
 20
-149.6030353622745
 30
0.0
 11
-162.7963144588659
 21
-161.6859969459171
 31
0.0
  0
LINE
  5
2E8
330
3A
100
AcDbEntity
  8
1
  6
Continuous
 62
     4
100
AcDbLine
 10
-162.7963144588659
 20
-161.6859969459171
 30
0.0
 11
-187.7963722903488
 21
-161.6859969459171
 31
0.0
  0
LINE
  5
2E9
330
3A
100
AcDbEntity
  8
0
  6
Continuous
 62
     4
100
AcDbLine
 10
-187.7963722903488
 20
-161.6859969459171
 30
0.0
 11
-187.7963724589109
 21
-161.6315039459172
 31
0.0
  0
LINE
  5
2EA
330
3A
100
AcDbEntity
  8
1
  6
Continuous
 62
     4
100
AcDbLine
 10
-162.7963144588659
 20
-161.6859969459171
 30
0.0
 11
-162.7963144588659
 21
-177.3486669459172
 31
0.0
  0
LINE
  5
2EB
330
3A
100
AcDbEntity
  8
1
  6
Continuous
 62
     4
100
AcDbLine
 10
-187.7963114589109
 20
-119.4316749459172
 30
0.0
 11
-179.2964421827856
 21
-119.4316749459172
 31
0.0
  0
LINE
  5
2EC
330
3A
100
AcDbEntity
  8
1
  6
Continuous
 62
     4
100
AcDbLine
 10
-179.2964421827856
 20
-119.4316749459172
 30
0.0
 11
-174.2964484589109
 21
-119.4316749459172
 31
0.0
  0
LINE
  5
2ED
330
3A
100
AcDbEntity
  8
1
  6
Continuous
 62
     4
100
AcDbLine
 10
-169.2961401130498
 20
-119.4316749459172
 30
0.0
 11
-162.7963184589109
 21
-119.4316749459172
 31
0.0
  0
LINE
  5
2EE
330
3A
100
AcDbEntity
  8
1
  6
Continuous
 62
     4
100
AcDbLine
 10
-174.2964484589109
 20
-119.4316749459172
 30
0.0
 11
-169.2961401130498
 21
-119.4316749459172
 31
0.0
  0
ARC
  5
2EF
330
3A
100
AcDbEntity
  8
0
  6
Continuous
 62
     4
100
AcDbCircle
 10
86.6197552269492
 20
-124.4316749459171
 30
0.0
 40
4.999997000000036
100
AcDbArc
 50
-70.68717343146872
 51
32.6873912615787
  0
ARC
  5
2F0
330
3A
100
AcDbEntity
  8
0
  6
Continuous
 62
     4
100
AcDbCircle
 10
262.6197552269492
 20
-124.4316749459172
 30
0.0
 40
5.000009999999995
100
AcDbArc
 50
36.95200799999969
 51
53.04807400000043
  0
ARC
  5
2F1
330
3A
100
AcDbEntity
  8
0
  6
Continuous
 62
     4
100
AcDbCircle
 10
262.6197552269492
 20
-124.4316749459172
 30
0.0
 40
4.999996999999986
100
AcDbArc
 50
-120.0000179999991
 51
36.95200800000079
  0
ARC
  5
2F2
330
3A
100
AcDbEntity
  8
0
  6
Continuous
 62
     4
100
AcDbCircle
 10
262.6197552269492
 20
-124.4316749459172
 30
0.0
 40
4.999998
100
AcDbArc
 50
-126.9523560000002
 51
-120.000018
  0
ARC
  5
2F3
330
3A
100
AcDbEntity
  8
0
  6
Continuous
 62
     4
100
AcDbCircle
 10
262.6197552269492
 20
-124.4316749459172
 30
0.0
 40
4.999997999999993
100
AcDbArc
 50
-134.4270290000003
 51
-126.9523560000002
  0
ARC
  5
2F4
330
3A
100
AcDbEntity
  8
0
  6
Continuous
 62
     4
100
AcDbCircle
 10
262.6197552269492
 20
-124.4316749459172
 30
0.0
 40
4.999999000000005
100
AcDbArc
 50
-143.0483060000004
 51
-134.4270289999995
  0
ARC
  5
2F5
330
3A
100
AcDbEntity
  8
0
  6
Continuous
 62
     4
100
AcDbCircle
 10
262.6197552269492
 20
-124.4316749459172
 30
0.0
 40
4.999995999999978
100
AcDbArc
 50
134.4270439999999
 51
-143.048306
  0
ARC
  5
2F6
330
3A
100
AcDbEntity
  8
0
  6
Continuous
 62
     4
100
AcDbCircle
 10
262.6197552269492
 20
-124.4316749459172
 30
0.0
 40
4.999996999999945
100
AcDbArc
 50
126.8699239999999
 51
134.4270440000003
  0
ARC
  5
2F7
330
3A
100
AcDbEntity
  8
0
  6
Continuous
 62
     4
100
AcDbCircle
 10
262.6197552269492
 20
-124.4316749459172
 30
0.0
 40
4.999996999999975
100
AcDbArc
 50
120.0000179999992
 51
126.8699239999999
  0
ARC
  5
2F8
330
3A
100
AcDbEntity
  8
0
  6
Continuous
 62
     4
100
AcDbCircle
 10
262.6197552269492
 20
-124.4316749459172
 30
0.0
 40
4.999996999999956
100
AcDbArc
 50
53.0480740000008
 51
120.0000179999992
  0
ARC
  5
2F9
330
3A
100
AcDbEntity
  8
0
  6
Continuous
 62
     4
100
AcDbCircle
 10
262.6197552269492
 20
-186.4316749459172
 30
0.0
 40
4.999996999999956
100
AcDbArc
 50
53.0480740000008
 51
120.0000179999991
  0
ARC
  5
2FA
330
3A
100
AcDbEntity
  8
0
  6
Continuous
 62
     4
100
AcDbCircle
 10
262.6197552269492
 20
-186.4316749459172
 30
0.0
 40
4.999996999999986
100
AcDbArc
 50
120.0000179999991
 51
126.8699239999998
  0
ARC
  5
2FB
330
3A
100
AcDbEntity
  8
0
  6
Continuous
 62
     4
100
AcDbCircle
 10
262.6197552269492
 20
-186.4316749459172
 30
0.0
 40
4.999996999999957
100
AcDbArc
 50
126.8699239999998
 51
134.4270440000003
  0
ARC
  5
2FC
330
3A
100
AcDbEntity
  8
0
  6
Continuous
 62
     4
100
AcDbCircle
 10
262.6197552269492
 20
-186.4316749459172
 30
0.0
 40
4.999995999999968
100
AcDbArc
 50
134.4270439999999
 51
-143.048306
  0
ARC
  5
2FD
330
3A
100
AcDbEntity
  8
0
  6
Continuous
 62
     4
100
AcDbCircle
 10
262.6197552269492
 20
-186.4316749459172
 30
0.0
 40
4.999998999999996
100
AcDbArc
 50
-143.0483060000005
 51
-134.4270289999995
  0
ARC
  5
2FE
330
3A
100
AcDbEntity
  8
0
  6
Continuous
 62
     4
100
AcDbCircle
 10
262.6197552269492
 20
-186.4316749459172
 30
0.0
 40
4.999997999999993
100
AcDbArc
 50
-134.4270290000003
 51
-126.9523560000002
  0
ARC
  5
2FF
330
3A
100
AcDbEntity
  8
0
  6
Continuous
 62
     4
100
AcDbCircle
 10
262.6197552269492
 20
-186.4316749459172
 30
0.0
 40
4.999998
100
AcDbArc
 50
-126.9523560000002
 51
-120.000018
  0
ARC
  5
300
330
3A
100
AcDbEntity
  8
0
  6
Continuous
 62
     4
100
AcDbCircle
 10
262.6197552269492
 20
-186.4316749459172
 30
0.0
 40
4.999996999999986
100
AcDbArc
 50
-120.0000179999991
 51
36.95200800000079
  0
ARC
  5
301
330
3A
100
AcDbEntity
  8
0
  6
Continuous
 62
     4
100
AcDbCircle
 10
262.6197552269492
 20
-186.4316749459172
 30
0.0
 40
5.000009999999986
100
AcDbArc
 50
36.95200799999957
 51
53.04807400000033
  0
ARC
  5
302
330
3A
100
AcDbEntity
  8
0
  6
Continuous
 62
     4
100
AcDbCircle
 10
86.6197552269492
 20
-186.4316749459171
 30
0.0
 40
5.000009999999981
100
AcDbArc
 50
36.95200800000002
 51
53.04807400000001
  0
ARC
  5
303
330
3A
100
AcDbEntity
  8
0
  6
Continuous
 62
     4
100
AcDbCircle
 10
86.6197552269492
 20
-186.4316749459171
 30
0.0
 40
4.999997000000029
100
AcDbArc
 50
-120.000018
 51
36.95200800000075
  0
ARC
  5
304
330
3A
100
AcDbEntity
  8
0
  6
Continuous
 62
     4
100
AcDbCircle
 10
86.6197552269492
 20
-186.4316749459171
 30
0.0
 40
4.999997999999991
100
AcDbArc
 50
-126.952356
 51
-120.0000180000005
  0
ARC
  5
305
330
3A
100
AcDbEntity
  8
0
  6
Continuous
 62
     4
100
AcDbCircle
 10
86.6197552269492
 20
-186.4316749459171
 30
0.0
 40
4.999997999999973
100
AcDbArc
 50
-134.4270290000005
 51
-126.952356
  0
ARC
  5
306
330
3A
100
AcDbEntity
  8
0
  6
Continuous
 62
     4
100
AcDbCircle
 10
86.6197552269492
 20
-186.4316749459171
 30
0.0
 40
4.999998999999996
100
AcDbArc
 50
-143.0483060000005
 51
-134.4270290000002
  0
ARC
  5
307
330
3A
100
AcDbEntity
  8
0
  6
Continuous
 62
     4
100
AcDbCircle
 10
86.6197552269492
 20
-186.4316749459171
 30
0.0
 40
4.999996000000018
100
AcDbArc
 50
134.4270440000001
 51
-143.0483059999999
  0
ARC
  5
308
330
3A
100
AcDbEntity
  8
0
  6
Continuous
 62
     4
100
AcDbCircle
 10
86.6197552269492
 20
-186.4316749459171
 30
0.0
 40
4.999996999999991
100
AcDbArc
 50
126.8699240000003
 51
134.4270440000007
  0
ARC
  5
309
330
3A
100
AcDbEntity
  8
0
  6
Continuous
 62
     4
100
AcDbCircle
 10
86.6197552269492
 20
-186.4316749459171
 30
0.0
 40
4.999997000000029
100
AcDbArc
 50
120.000018
 51
126.8699240000003
  0
ARC
  5
30A
330
3A
100
AcDbEntity
  8
0
  6
Continuous
 62
     4
100
AcDbCircle
 10
86.6197552269492
 20
-186.4316749459171
 30
0.0
 40
4.999997000000013
100
AcDbArc
 50
53.04807400000048
 51
120.000018
  0
ARC
  5
30B
330
3A
100
AcDbEntity
  8
0
  6
Continuous
 62
     4
100
AcDbCircle
 10
-103.696445458911
 20
-199.0316499459172
 30
0.0
 40
2.399997999999897
100
AcDbArc
 50
-90.0
 51
-0.05230367651114
  0
ARC
  5
30C
330
3A
100
AcDbEntity
  8
0
  6
Continuous
 62
     4
100
AcDbCircle
 10
-103.696445458911
 20
-121.8316689459171
 30
0.0
 40
2.399994000000007
100
AcDbArc
 50
0.0
 51
90.0
  0
ARC
  5
30D
330
3A
100
AcDbEntity
  8
0
  6
LONG_DASHED
 62
     3
100
AcDbCircle
 10
44.6197552269492
 20
-131.4316749459171
 30
0.0
 40
4.0
100
AcDbArc
 50
-90.0
 51
0.0
  0
ARC
  5
30E
330
3A
100
AcDbEntity
  8
0
  6
Continuous
 62
     4
100
AcDbCircle
 10
52.6197552269492
 20
-95.4316749459171
 30
0.0
 40
4.0
100
AcDbArc
 50
90.0
 51
180.0
  0
ARC
  5
30F
330
3A
100
AcDbEntity
  8
0
  6
Continuous
 62
     4
100
AcDbCircle
 10
261.6197552269492
 20
-111.4316749459171
 30
0.0
 40
4.0
100
AcDbArc
 50
-90.0
 51
0.0
  0
ARC
  5
310
330
3A
100
AcDbEntity
  8
0
  6
Continuous
 62
     4
100
AcDbCircle
 10
261.6197552269492
 20
-95.43167494591708
 30
0.0
 40
4.0
100
AcDbArc
 50
-0.0000000000002
 51
90.0
  0
ARC
  5
311
330
3A
100
AcDbEntity
  8
0
  6
LONG_DASHED
 62
     3
100
AcDbCircle
 10
15.6197552269492
 20
-155.4316749459171
 30
0.0
 40
20.0
100
AcDbArc
 50
180.0
 51
-69.99999500000001
  0
ARC
  5
312
330
3A
100
AcDbEntity
  8
0
  6
LONG_DASHED
 62
     3
100
AcDbCircle
 10
66.84939622694921
 20
-153.8124539459171
 30
0.0
 40
3.99999899999999
100
AcDbArc
 50
-70.0000029999999
 51
-20.00010500000013
  0
ARC
  5
313
330
3A
100
AcDbEntity
  8
0
  6
Continuous
 62
     4
100
AcDbCircle
 10
72.6197552269492
 20
-98.4316749459171
 30
0.0
 40
3.0
100
AcDbArc
 50
90.0
 51
180.0
  0
ARC
  5
314
330
3A
100
AcDbEntity
  8
0
  6
Continuous
 62
     4
100
AcDbCircle
 10
72.6197552269492
 20
-108.4316749459171
 30
0.0
 40
3.0
100
AcDbArc
 50
180.0
 51
-90.0
  0
ARC
  5
315
330
3A
100
AcDbEntity
  8
0
  6
Continuous
 62
     4
100
AcDbCircle
 10
96.6197552269492
 20
-108.4316749459171
 30
0.0
 40
3.0
100
AcDbArc
 50
-90.0
 51
0.0
  0
ARC
  5
316
330
3A
100
AcDbEntity
  8
0
  6
Continuous
 62
     4
100
AcDbCircle
 10
96.6197552269492
 20
-98.4316749459171
 30
0.0
 40
3.0
100
AcDbArc
 50
0.0
 51
90.0
  0
ARC
  5
317
330
3A
100
AcDbEntity
  8
0
  6
Continuous
 62
     4
100
AcDbCircle
 10
120.6197552269492
 20
-98.4316749459171
 30
0.0
 40
3.0
100
AcDbArc
 50
90.0
 51
180.0
  0
ARC
  5
318
330
3A
100
AcDbEntity
  8
0
  6
Continuous
 62
     4
100
AcDbCircle
 10
120.6197552269492
 20
-108.4316749459171
 30
0.0
 40
3.0
100
AcDbArc
 50
180.0
 51
-90.0
  0
ARC
  5
319
330
3A
100
AcDbEntity
  8
0
  6
Continuous
 62
     4
100
AcDbCircle
 10
144.6197552269492
 20
-98.4316749459171
 30
0.0
 40
3.0
100
AcDbArc
 50
0.0
 51
90.0
  0
ARC
  5
31A
330
3A
100
AcDbEntity
  8
0
  6
Continuous
 62
     4
100
AcDbCircle
 10
144.6197552269492
 20
-108.4316749459171
 30
0.0
 40
3.0
100
AcDbArc
 50
-90.0
 51
0.0
  0
ARC
  5
31B
330
3A
100
AcDbEntity
  8
0
  6
Continuous
 62
     4
100
AcDbCircle
 10
168.6197552269492
 20
-98.4316749459171
 30
0.0
 40
3.0
100
AcDbArc
 50
90.0
 51
180.0
  0
ARC
  5
31C
330
3A
100
AcDbEntity
  8
0
  6
Continuous
 62
     4
100
AcDbCircle
 10
192.6197552269492
 20
-98.43167494591708
 30
0.0
 40
3.0
100
AcDbArc
 50
-0.00000000000027
 51
90.0
  0
ARC
  5
31D
330
3A
100
AcDbEntity
  8
0
  6
Continuous
 62
     4
100
AcDbCircle
 10
168.6197552269492
 20
-108.4316749459171
 30
0.0
 40
3.0
100
AcDbArc
 50
180.0
 51
-90.0
  0
ARC
  5
31E
330
3A
100
AcDbEntity
  8
0
  6
Continuous
 62
     4
100
AcDbCircle
 10
192.6197552269492
 20
-108.4316749459171
 30
0.0
 40
3.0
100
AcDbArc
 50
-90.0
 51
0.0
  0
ARC
  5
31F
330
3A
100
AcDbEntity
  8
0
  6
Continuous
 62
     4
100
AcDbCircle
 10
216.6197552269492
 20
-98.43167494591708
 30
0.0
 40
2.999999999999986
100
AcDbArc
 50
90.0
 51
-179.9999999999997
  0
ARC
  5
320
330
3A
100
AcDbEntity
  8
0
  6
Continuous
 62
     4
100
AcDbCircle
 10
240.6197552269492
 20
-98.43167494591708
 30
0.0
 40
3.0
100
AcDbArc
 50
-0.00000000000027
 51
90.0
  0
ARC
  5
321
330
3A
100
AcDbEntity
  8
0
  6
Continuous
 62
     4
100
AcDbCircle
 10
240.6197552269492
 20
-108.4316749459171
 30
0.0
 40
3.0
100
AcDbArc
 50
-90.0
 51
0.0
  0
ARC
  5
322
330
3A
100
AcDbEntity
  8
0
  6
Continuous
 62
     4
100
AcDbCircle
 10
216.6197552269492
 20
-108.4316749459171
 30
0.0
 40
3.0
100
AcDbArc
 50
180.0
 51
-90.0
  0
ARC
  5
323
330
3A
100
AcDbEntity
  8
1
  6
LONG_DASHED
 62
     3
100
AcDbCircle
 10
15.6197552269492
 20
-155.4316749459171
 30
0.0
 40
6.999999999992651
100
AcDbArc
 50
50.22805596805144
 51
119.7719440319777
  0
ARC
  5
324
330
3A
100
AcDbEntity
  8
1
  6
LONG_DASHED
 62
     3
100
AcDbCircle
 10
15.6197552269492
 20
-155.4316749459171
 30
0.0
 40
11.29999999999383
100
AcDbArc
 50
144.4127703098939
 51
180.0
  0
ARC
  5
325
330
3A
100
AcDbEntity
  8
1
  6
LONG_DASHED
 62
     3
100
AcDbCircle
 10
15.6197552269492
 20
-155.4316749459171
 30
0.0
 40
11.29999999999927
100
AcDbArc
 50
180.0
 51
-154.4127703098486
  0
ARC
  5
326
330
3A
100
AcDbEntity
  8
1
  6
LONG_DASHED
 62
     3
100
AcDbCircle
 10
15.6197552269492
 20
-155.4316749459171
 30
0.0
 40
11.29999999999927
100
AcDbArc
 50
0.0
 51
25.5872296901018
  0
ARC
  5
327
330
3A
100
AcDbEntity
  8
1
  6
LONG_DASHED
 62
     3
100
AcDbCircle
 10
15.6197552269492
 20
-155.4316749459171
 30
0.0
 40
11.30000000000016
100
AcDbArc
 50
-35.58722969015099
 51
0.0
  0
ARC
  5
328
330
3A
100
AcDbEntity
  8
1
  6
LONG_DASHED
 62
     3
100
AcDbCircle
 10
15.6197552269492
 20
-155.4316749459171
 30
0.0
 40
7.000000000007982
100
AcDbArc
 50
-129.7719440319604
 51
-60.22805596816437
  0
ARC
  5
329
330
3A
100
AcDbEntity
  8
0
  6
LONG_DASHED
 62
     3
100
AcDbCircle
 10
15.6197552269492
 20
-155.4316749459171
 30
0.0
 40
20.0
100
AcDbArc
 50
90.0
 51
180.0
  0
ARC
  5
32A
330
3A
100
AcDbEntity
  8
0
  6
LONG_DASHED
 62
     3
100
AcDbCircle
 10
-22.18023277305083
 20
-197.2316559459171
 30
0.0
 40
4.200011999999951
100
AcDbArc
 50
180.0
 51
-90.0
  0
ARC
  5
32B
330
3A
100
AcDbEntity
  8
0
  6
LONG_DASHED
 62
     3
100
AcDbCircle
 10
-22.18023277305083
 20
-123.6316879459171
 30
0.0
 40
4.200011999999987
100
AcDbArc
 50
90.0
 51
180.0
  0
ARC
  5
32C
330
3A
100
AcDbEntity
  8
0
  6
LONG_DASHED
 62
     3
100
AcDbCircle
 10
297.4197582269492
 20
-197.2316559459171
 30
0.0
 40
4.199996999999996
100
AcDbArc
 50
-90.0
 51
0.0
  0
ARC
  5
32D
330
3A
100
AcDbEntity
  8
0
  6
LONG_DASHED
 62
     3
100
AcDbCircle
 10
297.4197582269492
 20
-123.6316879459171
 30
0.0
 40
4.199996999999996
100
AcDbArc
 50
0.0
 51
90.0
  0
ARC
  5
32E
330
3A
100
AcDbEntity
  8
0
  6
LONG_DASHED
 62
     3
100
AcDbCircle
 10
297.4197582269492
 20
-197.2316559459171
 30
0.0
 40
3.0
100
AcDbArc
 50
-90.0
 51
0.0
  0
ARC
  5
32F
330
3A
100
AcDbEntity
  8
0
  6
LONG_DASHED
 62
     3
100
AcDbCircle
 10
297.4197582269492
 20
-123.6316879459171
 30
0.0
 40
3.0
100
AcDbArc
 50
0.0
 51
90.0
  0
ARC
  5
330
330
3A
100
AcDbEntity
  8
0
  6
LONG_DASHED
 62
     3
100
AcDbCircle
 10
-22.18023277305083
 20
-197.2316559459171
 30
0.0
 40
3.0
100
AcDbArc
 50
180.0
 51
-90.0
  0
ARC
  5
331
330
3A
100
AcDbEntity
  8
0
  6
LONG_DASHED
 62
     3
100
AcDbCircle
 10
-22.18023277305083
 20
-123.6316879459171
 30
0.0
 40
3.0
100
AcDbArc
 50
90.0
 51
180.0
  0
ARC
  5
332
330
3A
100
AcDbEntity
  8
0
  6
Continuous
 62
     4
100
AcDbCircle
 10
15.6197552269492
 20
-155.4316749459171
 30
0.0
 40
5.499999000000026
100
AcDbArc
 50
52.83740500000023
 51
-142.8372379999999
  0
ARC
  5
333
330
3A
100
AcDbEntity
  8
0
  6
Continuous
 62
     4
100
AcDbCircle
 10
15.6197552269492
 20
-155.4316749459171
 30
0.0
 40
5.499996000000005
100
AcDbArc
 50
-142.8372379999999
 51
-127.1622570000001
  0
ARC
  5
334
330
3A
100
AcDbEntity
  8
0
  6
Continuous
 62
     4
100
AcDbCircle
 10
15.6197552269492
 20
-155.4316749459171
 30
0.0
 40
5.499990999999996
100
AcDbArc
 50
-127.162257
 51
37.16241200000049
  0
ARC
  5
335
330
3A
100
AcDbEntity
  8
0
  6
Continuous
 62
     4
100
AcDbCircle
 10
15.6197552269492
 20
-155.4316749459171
 30
0.0
 40
5.500000000000032
100
AcDbArc
 50
37.16241200000047
 51
52.83740500000057
  0
ARC
  5
336
330
3A
100
AcDbEntity
  8
0
  6
Continuous
 62
     4
100
AcDbCircle
 10
-16.88024477305079
 20
-155.4316749459171
 30
0.0
 40
4.999997000000013
100
AcDbArc
 50
53.04807400000048
 51
120.0000179999999
  0
ARC
  5
337
330
3A
100
AcDbEntity
  8
0
  6
Continuous
 62
     4
100
AcDbCircle
 10
-16.88024477305079
 20
-155.4316749459171
 30
0.0
 40
4.999997000000025
100
AcDbArc
 50
120.0000179999999
 51
126.8699240000002
  0
ARC
  5
338
330
3A
100
AcDbEntity
  8
0
  6
Continuous
 62
     4
100
AcDbCircle
 10
-16.88024477305079
 20
-155.4316749459171
 30
0.0
 40
4.999996999999986
100
AcDbArc
 50
126.8699240000002
 51
134.4270440000006
  0
ARC
  5
339
330
3A
100
AcDbEntity
  8
0
  6
Continuous
 62
     4
100
AcDbCircle
 10
-16.88024477305079
 20
-155.4316749459171
 30
0.0
 40
4.999996000000021
100
AcDbArc
 50
134.4270440000001
 51
-143.0483059999999
  0
ARC
  5
33A
330
3A
100
AcDbEntity
  8
0
  6
Continuous
 62
     4
100
AcDbCircle
 10
-16.88024477305079
 20
-155.4316749459171
 30
0.0
 40
4.999998999999994
100
AcDbArc
 50
-143.0483060000005
 51
-134.4270290000001
  0
ARC
  5
33B
330
3A
100
AcDbEntity
  8
0
  6
Continuous
 62
     4
100
AcDbCircle
 10
-16.88024477305079
 20
-155.4316749459171
 30
0.0
 40
4.999997999999968
100
AcDbArc
 50
-134.4270290000005
 51
-126.9523560000001
  0
ARC
  5
33C
330
3A
100
AcDbEntity
  8
0
  6
Continuous
 62
     4
100
AcDbCircle
 10
-16.88024477305079
 20
-155.4316749459171
 30
0.0
 40
4.999997999999994
100
AcDbArc
 50
-126.9523560000001
 51
-120.0000180000004
  0
ARC
  5
33D
330
3A
100
AcDbEntity
  8
0
  6
Continuous
 62
     4
100
AcDbCircle
 10
-16.88024477305079
 20
-155.4316749459171
 30
0.0
 40
4.999997000000025
100
AcDbArc
 50
-120.0000179999999
 51
36.95200800000077
  0
ARC
  5
33E
330
3A
100
AcDbEntity
  8
0
  6
Continuous
 62
     4
100
AcDbCircle
 10
-16.88024477305079
 20
-155.4316749459171
 30
0.0
 40
5.000009999999985
100
AcDbArc
 50
36.95200799999999
 51
53.04807399999994
  0
ARC
  5
33F
330
3A
100
AcDbEntity
  8
0
  6
Continuous
 62
     4
100
AcDbCircle
 10
15.6197552269492
 20
-155.4316749459171
 30
0.0
 40
25.919994
100
AcDbArc
 50
90.0
 51
120.6452730000001
  0
ARC
  5
340
330
3A
100
AcDbEntity
  8
0
  6
Continuous
 62
     4
100
AcDbCircle
 10
15.6197552269492
 20
-155.4316749459171
 30
0.0
 40
25.91999399999994
100
AcDbArc
 50
120.6452730000001
 51
-120.645311
  0
ARC
  5
341
330
3A
100
AcDbEntity
  8
0
  6
Continuous
 62
     4
100
AcDbCircle
 10
15.6197552269492
 20
-155.4316749459171
 30
0.0
 40
25.919995
100
AcDbArc
 50
-120.645311
 51
-70.99998699999999
  0
ARC
  5
342
330
3A
100
AcDbEntity
  8
0
  6
Continuous
 62
     4
100
AcDbCircle
 10
41.85031222694919
 20
-126.5116839459171
 30
0.0
 40
2.99999600000001
100
AcDbArc
 50
-89.99999999999973
 51
-19.99987500000037
  0
ARC
  5
343
330
3A
100
AcDbEntity
  8
0
  6
Continuous
 62
     4
100
AcDbCircle
 10
-180.6525124589109
 20
-155.4315529459172
 30
0.0
 40
9.459087999999996
100
AcDbArc
 50
-173.9306959999999
 51
-139.046224
  0
ARC
  5
344
330
3A
100
AcDbEntity
  8
0
  6
Continuous
 62
     4
100
AcDbCircle
 10
-180.6525124589109
 20
-155.4315529459172
 30
0.0
 40
9.459077000000068
100
AcDbArc
 50
139.0462239999999
 51
173.9321659999998
  0
ARC
  5
345
330
3A
100
AcDbEntity
  8
0
  6
Continuous
 62
     4
100
AcDbCircle
 10
-157.8965464589109
 20
-134.9316749459172
 30
0.0
 40
2.0
100
AcDbArc
 50
90.0
 51
180.0
  0
ARC
  5
346
330
3A
100
AcDbEntity
  8
0
  6
Continuous
 62
     4
100
AcDbCircle
 10
-157.8965464589109
 20
-175.9316749459172
 30
0.0
 40
2.0
100
AcDbArc
 50
180.0
 51
-90.0
  0
ARC
  5
347
330
3A
100
AcDbEntity
  8
0
  6
Continuous
 62
     4
100
AcDbCircle
 10
44.6197552269492
 20
-24.1343084542617
 30
0.0
 40
4.0
100
AcDbArc
 50
-90.0
 51
0.0
  0
ARC
  5
348
330
3A
100
AcDbEntity
  8
0
  6
Continuous
 62
     4
100
AcDbCircle
 10
52.6197552269492
 20
11.8656915457383
 30
0.0
 40
4.0
100
AcDbArc
 50
90.0
 51
180.0
  0
ARC
  5
349
330
3A
100
AcDbEntity
  8
0
  6
Continuous
 62
     4
100
AcDbCircle
 10
261.6197552269492
 20
-4.1343084542617
 30
0.0
 40
4.0
100
AcDbArc
 50
-90.0
 51
0.0
  0
ARC
  5
34A
330
3A
100
AcDbEntity
  8
0
  6
Continuous
 62
     4
100
AcDbCircle
 10
261.6197552269492
 20
11.86569154573831
 30
0.0
 40
4.0
100
AcDbArc
 50
-0.00000000000013
 51
90.0
  0
ARC
  5
34B
330
3A
100
AcDbEntity
  8
0
  6
Continuous
 62
     4
100
AcDbCircle
 10
15.6197552269492
 20
-48.1343084542617
 30
0.0
 40
20.0
100
AcDbArc
 50
180.0
 51
-69.99999500000006
  0
ARC
  5
34C
330
3A
100
AcDbEntity
  8
0
  6
Continuous
 62
     4
100
AcDbCircle
 10
66.84939622694921
 20
-46.5150874542617
 30
0.0
 40
3.99999900000001
100
AcDbArc
 50
-70.00000299999999
 51
-20.00010499999994
  0
ARC
  5
34D
330
3A
100
AcDbEntity
  8
0
  6
Continuous
 62
     4
100
AcDbCircle
 10
72.6197552269492
 20
8.8656915457383
 30
0.0
 40
3.0
100
AcDbArc
 50
90.0
 51
180.0
  0
ARC
  5
34E
330
3A
100
AcDbEntity
  8
0
  6
Continuous
 62
     4
100
AcDbCircle
 10
72.6197552269492
 20
-1.1343084542617
 30
0.0
 40
3.0
100
AcDbArc
 50
180.0
 51
-90.0
  0
ARC
  5
34F
330
3A
100
AcDbEntity
  8
0
  6
Continuous
 62
     4
100
AcDbCircle
 10
96.6197552269492
 20
-1.1343084542617
 30
0.0
 40
3.0
100
AcDbArc
 50
-90.0
 51
0.0
  0
ARC
  5
350
330
3A
100
AcDbEntity
  8
0
  6
Continuous
 62
     4
100
AcDbCircle
 10
96.6197552269492
 20
8.86569154573829
 30
0.0
 40
3.0
100
AcDbArc
 50
0.0000000000002
 51
90.0
  0
ARC
  5
351
330
3A
100
AcDbEntity
  8
0
  6
Continuous
 62
     4
100
AcDbCircle
 10
120.6197552269492
 20
8.86569154573831
 30
0.0
 40
2.999999999999989
100
AcDbArc
 50
90.0
 51
-179.9999999999998
  0
ARC
  5
352
330
3A
100
AcDbEntity
  8
0
  6
Continuous
 62
     4
100
AcDbCircle
 10
120.6197552269492
 20
-1.13430845426169
 30
0.0
 40
3.0
100
AcDbArc
 50
-179.9999999999998
 51
-90.0
  0
ARC
  5
353
330
3A
100
AcDbEntity
  8
0
  6
Continuous
 62
     4
100
AcDbCircle
 10
144.6197552269492
 20
8.86569154573829
 30
0.0
 40
3.0
100
AcDbArc
 50
0.0000000000002
 51
90.0
  0
ARC
  5
354
330
3A
100
AcDbEntity
  8
0
  6
Continuous
 62
     4
100
AcDbCircle
 10
144.6197552269492
 20
-1.1343084542617
 30
0.0
 40
3.0
100
AcDbArc
 50
-90.0
 51
0.0
  0
ARC
  5
355
330
3A
100
AcDbEntity
  8
0
  6
Continuous
 62
     4
100
AcDbCircle
 10
168.6197552269492
 20
8.8656915457383
 30
0.0
 40
3.0
100
AcDbArc
 50
90.0
 51
180.0
  0
ARC
  5
356
330
3A
100
AcDbEntity
  8
0
  6
Continuous
 62
     4
100
AcDbCircle
 10
192.6197552269492
 20
8.86569154573829
 30
0.0
 40
3.0
100
AcDbArc
 50
0.0000000000002
 51
90.0
  0
ARC
  5
357
330
3A
100
AcDbEntity
  8
0
  6
Continuous
 62
     4
100
AcDbCircle
 10
168.6197552269492
 20
-1.13430845426169
 30
0.0
 40
3.0
100
AcDbArc
 50
-179.9999999999998
 51
-90.0
  0
ARC
  5
358
330
3A
100
AcDbEntity
  8
0
  6
Continuous
 62
     4
100
AcDbCircle
 10
192.6197552269492
 20
-1.13430845426171
 30
0.0
 40
2.999999999999989
100
AcDbArc
 50
-90.0
 51
0.00000000000021
  0
ARC
  5
359
330
3A
100
AcDbEntity
  8
0
  6
Continuous
 62
     4
100
AcDbCircle
 10
216.6197552269492
 20
8.86569154573829
 30
0.0
 40
3.000000000000011
100
AcDbArc
 50
90.0
 51
179.9999999999998
  0
ARC
  5
35A
330
3A
100
AcDbEntity
  8
0
  6
Continuous
 62
     4
100
AcDbCircle
 10
240.6197552269492
 20
8.86569154573829
 30
0.0
 40
3.0
100
AcDbArc
 50
0.0000000000002
 51
90.0
  0
ARC
  5
35B
330
3A
100
AcDbEntity
  8
0
  6
Continuous
 62
     4
100
AcDbCircle
 10
240.6197552269492
 20
-1.13430845426171
 30
0.0
 40
2.999999999999989
100
AcDbArc
 50
-90.0
 51
0.00000000000021
  0
ARC
  5
35C
330
3A
100
AcDbEntity
  8
0
  6
Continuous
 62
     4
100
AcDbCircle
 10
216.6197552269492
 20
-1.13430845426171
 30
0.0
 40
3.0
100
AcDbArc
 50
179.9999999999998
 51
-90.0
  0
ARC
  5
35D
330
3A
100
AcDbEntity
  8
1
  6
Continuous
 62
     4
100
AcDbCircle
 10
15.6197552269492
 20
-48.1343084542617
 30
0.0
 40
6.999999999992645
100
AcDbArc
 50
50.22805596805141
 51
119.7719440319778
  0
ARC
  5
35E
330
3A
100
AcDbEntity
  8
1
  6
Continuous
 62
     4
100
AcDbCircle
 10
15.6197552269492
 20
-48.1343084542617
 30
0.0
 40
11.29999999999385
100
AcDbArc
 50
144.4127703098938
 51
180.0
  0
ARC
  5
35F
330
3A
100
AcDbEntity
  8
1
  6
Continuous
 62
     4
100
AcDbCircle
 10
15.6197552269492
 20
-48.1343084542617
 30
0.0
 40
11.29999999999927
100
AcDbArc
 50
180.0
 51
-154.4127703098485
  0
ARC
  5
360
330
3A
100
AcDbEntity
  8
1
  6
Continuous
 62
     4
100
AcDbCircle
 10
15.6197552269492
 20
-48.1343084542617
 30
0.0
 40
11.29999999999927
100
AcDbArc
 50
0.0
 51
25.58722969010154
  0
ARC
  5
361
330
3A
100
AcDbEntity
  8
1
  6
Continuous
 62
     4
100
AcDbCircle
 10
15.6197552269492
 20
-48.1343084542617
 30
0.0
 40
11.3000000000002
100
AcDbArc
 50
-35.58722969015123
 51
0.0
  0
ARC
  5
362
330
3A
100
AcDbEntity
  8
1
  6
Continuous
 62
     4
100
AcDbCircle
 10
15.6197552269492
 20
-48.1343084542617
 30
0.0
 40
7.000000000008031
100
AcDbArc
 50
-129.7719440319601
 51
-60.22805596816437
  0
ARC
  5
363
330
3A
100
AcDbEntity
  8
0
  6
Continuous
 62
     4
100
AcDbCircle
 10
15.6197552269492
 20
-48.1343084542617
 30
0.0
 40
20.0
100
AcDbArc
 50
90.0
 51
180.0
  0
CIRCLE
  5
364
330
3A
100
AcDbEntity
  8
1
  6
Continuous
 62
     4
100
AcDbCircle
 10
60.6197552269492
 20
-103.4316749459171
 30
0.0
 40
6.199999999999996
  0
CIRCLE
  5
365
330
3A
100
AcDbEntity
  8
1
  6
Continuous
 62
     4
100
AcDbCircle
 10
60.6197552269492
 20
-103.4316749459171
 30
0.0
 40
3.199999999999996
  0
CIRCLE
  5
366
330
3A
100
AcDbEntity
  8
1
  6
Continuous
 62
     4
100
AcDbCircle
 10
108.6197552269492
 20
-103.4316749459171
 30
0.0
 40
6.200000000000003
  0
CIRCLE
  5
367
330
3A
100
AcDbEntity
  8
1
  6
Continuous
 62
     4
100
AcDbCircle
 10
108.6197552269492
 20
-103.4316749459171
 30
0.0
 40
3.200000000000003
  0
CIRCLE
  5
368
330
3A
100
AcDbEntity
  8
1
  6
Continuous
 62
     4
100
AcDbCircle
 10
156.6197552269492
 20
-103.4316749459171
 30
0.0
 40
6.200000000000017
  0
CIRCLE
  5
369
330
3A
100
AcDbEntity
  8
1
  6
Continuous
 62
     4
100
AcDbCircle
 10
156.6197552269492
 20
-103.4316749459171
 30
0.0
 40
3.200000000000017
  0
CIRCLE
  5
36A
330
3A
100
AcDbEntity
  8
1
  6
Continuous
 62
     4
100
AcDbCircle
 10
204.6197552269492
 20
-103.4316749459171
 30
0.0
 40
6.200000000000017
  0
CIRCLE
  5
36B
330
3A
100
AcDbEntity
  8
1
  6
Continuous
 62
     4
100
AcDbCircle
 10
204.6197552269492
 20
-103.4316749459171
 30
0.0
 40
3.200000000000017
  0
CIRCLE
  5
36C
330
3A
100
AcDbEntity
  8
1
  6
Continuous
 62
     4
100
AcDbCircle
 10
252.6197552269492
 20
-103.4316749459171
 30
0.0
 40
6.200000000000017
  0
CIRCLE
  5
36D
330
3A
100
AcDbEntity
  8
1
  6
Continuous
 62
     4
100
AcDbCircle
 10
252.6197552269492
 20
-103.4316749459171
 30
0.0
 40
3.200000000000017
  0
CIRCLE
  5
36E
330
3A
100
AcDbEntity
  8
1
  6
LONG_DASHED
 62
     3
100
AcDbCircle
 10
15.6197552269492
 20
-155.4316749459171
 30
0.0
 40
19.47592220716979
  0
CIRCLE
  5
36F
330
3A
100
AcDbEntity
  8
1
  6
Continuous
 62
     4
100
AcDbCircle
 10
60.6197552269492
 20
3.8656915457383
 30
0.0
 40
6.199999999999996
  0
CIRCLE
  5
370
330
3A
100
AcDbEntity
  8
1
  6
Continuous
 62
     4
100
AcDbCircle
 10
60.6197552269492
 20
3.8656915457383
 30
0.0
 40
3.199999999999996
  0
CIRCLE
  5
371
330
3A
100
AcDbEntity
  8
1
  6
Continuous
 62
     4
100
AcDbCircle
 10
108.6197552269492
 20
3.8656915457383
 30
0.0
 40
6.200000000000003
  0
CIRCLE
  5
372
330
3A
100
AcDbEntity
  8
1
  6
Continuous
 62
     4
100
AcDbCircle
 10
108.6197552269492
 20
3.8656915457383
 30
0.0
 40
3.200000000000003
  0
CIRCLE
  5
373
330
3A
100
AcDbEntity
  8
1
  6
Continuous
 62
     4
100
AcDbCircle
 10
156.6197552269492
 20
3.8656915457383
 30
0.0
 40
6.200000000000017
  0
CIRCLE
  5
374
330
3A
100
AcDbEntity
  8
1
  6
Continuous
 62
     4
100
AcDbCircle
 10
156.6197552269492
 20
3.8656915457383
 30
0.0
 40
3.200000000000017
  0
CIRCLE
  5
375
330
3A
100
AcDbEntity
  8
1
  6
Continuous
 62
     4
100
AcDbCircle
 10
204.6197552269492
 20
3.8656915457383
 30
0.0
 40
6.200000000000017
  0
CIRCLE
  5
376
330
3A
100
AcDbEntity
  8
1
  6
Continuous
 62
     4
100
AcDbCircle
 10
204.6197552269492
 20
3.8656915457383
 30
0.0
 40
3.200000000000017
  0
CIRCLE
  5
377
330
3A
100
AcDbEntity
  8
1
  6
Continuous
 62
     4
100
AcDbCircle
 10
252.6197552269492
 20
3.8656915457383
 30
0.0
 40
6.200000000000017
  0
CIRCLE
  5
378
330
3A
100
AcDbEntity
  8
1
  6
Continuous
 62
     4
100
AcDbCircle
 10
252.6197552269492
 20
3.8656915457383
 30
0.0
 40
3.200000000000017
  0
CIRCLE
  5
379
330
3A
100
AcDbEntity
  8
1
  6
Continuous
 62
     4
100
AcDbCircle
 10
15.6197552269492
 20
-48.1343084542617
 30
0.0
 40
19.47592220716979
  0
XLINE
  5
37A
330
3A
100
AcDbEntity
  8
1
  6
DOT_CENTER
 62
     3
 60
     1
100
AcDbXline
 10
-162.7963144588659
 20
-177.3486669459172
 30
0.0
 11
-1.0
 21
0.0
 31
0.0
  0
LWPOLYLINE
  5
37B
330
3A
100
AcDbEntity
  8
1
  6
Continuous
 62
     1
 60
     1
100
AcDbPolyline
 90
        3
 70
     0
 43
0.0
 10
25.6197552269492
 20
52.46569154573685
 10
45.6197552269492
 20
52.46569154573685
 10
47.00539587299827
 20
54.8656915457383
  0
TEXT
  5
37C
330
3A
100
AcDbEntity
  8
0
 62
     4
100
AcDbText
 10
71.6265403682531
 20
-105.1816749459171
 30
0.0
 40
4.0
  1
MOD. DB
 41
0.99
  7
CONVERTER_11
100
AcDbText
  0
TEXT
  5
37D
330
3A
100
AcDbEntity
  8
0
 62
     4
100
AcDbText
 10
125.1197552269492
 20
-105.1816749459171
 30
0.0
 40
4.0
  1
GEZE
 41
0.99
  7
CONVERTER_11
100
AcDbText
  0
TEXT
  5
37E
330
3A
100
AcDbEntity
  8
0
 62
     4
100
AcDbText
 10
167.4625386797652
 20
-102.4316749459171
 30
0.0
 40
4.0
  1
Made in
 41
0.99
  7
CONVERTER_11
100
AcDbText
  0
TEXT
  5
37F
330
3A
100
AcDbEntity
  8
0
 62
     4
100
AcDbText
 10
167.4625386797652
 20
-108.4316749459171
 30
0.0
 40
4.0
  1
Germany
 41
0.99
  7
CONVERTER_11
100
AcDbText
  0
TEXT
  5
380
330
3A
100
AcDbEntity
  8
0
 62
     4
100
AcDbText
 10
71.6265403682531
 20
2.1156915457383
 30
0.0
 40
4.0
  1
MOD. DB
 41
0.99
  7
CONVERTER_11
100
AcDbText
  0
TEXT
  5
381
330
3A
100
AcDbEntity
  8
0
 62
     4
100
AcDbText
 10
125.1197552269492
 20
2.1156915457383
 30
0.0
 40
4.0
  1
GEZE
 41
0.99
  7
CONVERTER_11
100
AcDbText
  0
TEXT
  5
382
330
3A
100
AcDbEntity
  8
0
 62
     4
100
AcDbText
 10
167.4625386797652
 20
4.8656915457383
 30
0.0
 40
4.0
  1
Made in
 41
0.99
  7
CONVERTER_11
100
AcDbText
  0
TEXT
  5
383
330
3A
100
AcDbEntity
  8
0
 62
     4
100
AcDbText
 10
167.4625386797652
 20
-1.1343084542617
 30
0.0
 40
4.0
  1
Germany
 41
0.99
  7
CONVERTER_11
100
AcDbText
  0
DIMENSION
  5
38E
330
3A
100
AcDbEntity
  8
1
100
AcDbDimension
  2
*D5
 10
-22.6304642911568
 20
64.3656915457383
 30
0.0
 11
-26.3804642911568
 21
54.5706698655069
 31
0.0
 70
    32
  1
<>
 71
     5
 42
-1.0
 53
90.0
  3
ME10_DIM_10
100
AcDbAlignedDimension
 13
-3.88237086987138
 23
45.3656915457383
 33
0.0
 14
-3.88237086986046
 24
64.3656915457383
 34
0.0
 50
90.0
100
AcDbRotatedDimension
  0
DIMENSION
  5
399
330
3A
100
AcDbEntity
  8
1
100
AcDbDimension
  2
*D6
 10
287.389955575182
 20
59.8656915457383
 30
0.0
 11
283.639955575182
 21
54.6412708186805
 31
0.0
 70
    32
  1
<>
 71
     5
 42
-1.0
 53
90.0
  3
ME10_DIM_11
100
AcDbAlignedDimension
 13
265.357716330534
 23
49.8656915457383
 33
0.0
 14
265.357716330534
 24
59.8656915457383
 34
0.0
 50
90.0
100
AcDbRotatedDimension
  0
DIMENSION
  5
3A4
330
3A
100
AcDbEntity
  8
1
100
AcDbDimension
  2
*D7
 10
286.604396473846
 20
15.86569154573831
 30
0.0
 11
282.854396473846
 21
3.57992923188698
 31
0.0
 70
    32
  1
<>
 71
     5
 42
-1.0
 53
90.0
  3
ME10_DIM_12
100
AcDbAlignedDimension
 13
261.6197552269492
 23
-8.1343084542617
 33
0.0
 14
261.6197552269492
 24
15.86569154573831
 34
0.0
 50
90.0
100
AcDbRotatedDimension
  0
DIMENSION
  5
3AF
330
3A
100
AcDbEntity
  8
1
100
AcDbDimension
  2
*D8
 10
48.6197552269492
 20
30.466734183963
 30
0.0
 11
158.736058462871
 21
34.216734183963
 31
0.0
 70
    32
  1
<>
 71
     5
 42
-1.0
 53
0.00013888888889
  3
ME10_DIM_13
100
AcDbAlignedDimension
 13
265.6197552269492
 23
11.8656915457383
 33
0.0
 14
48.6197552269492
 24
11.8656915457383
 34
0.0
100
AcDbRotatedDimension
  0
DIMENSION
  5
3BA
330
3A
100
AcDbEntity
  8
1
100
AcDbDimension
  2
*D9
 10
48.6197552269492
 20
30.6869049179915
 30
0.0
 11
31.2262745208039
 21
34.4369049179915
 31
0.0
 70
    32
  1
<>
 71
     5
 42
-1.0
 53
0.00013888888889
  3
ME10_DIM_14
100
AcDbAlignedDimension
 13
15.6197552269492
 23
-28.1343084542617
 33
0.0
 14
48.6197552269492
 24
11.8656915457383
 34
0.0
100
AcDbRotatedDimension
  0
DIMENSION
  5
3C5
330
3A
100
AcDbEntity
  8
1
100
AcDbDimension
  2
*D10
 10
-19.2339145534119
 20
-48.1343084542617
 30
0.0
 11
-22.9839145534119
 21
-19.14264707683355
 31
0.0
 70
    32
  1
<>
 71
     5
 42
-1.0
 53
90.0
  3
ME10_DIM_15
100
AcDbAlignedDimension
 13
46.6197552269492
 23
3.8656915457383
 33
0.0
 14
-6.3802447730508
 24
-48.1343084542617
 34
0.0
 50
90.0
100
AcDbRotatedDimension
  0
DIMENSION
  5
3D0
330
3A
100
AcDbEntity
  8
1
100
AcDbDimension
  2
*D11
 10
-155.2964484589109
 20
-77.0313984103086
 30
0.0
 11
-167.738490743324
 21
-73.2813984103086
 31
0.0
 70
    32
  1
<>
 71
     5
 42
-1.0
 53
0.00013888888889
  3
ME10_DIM_16
100
AcDbAlignedDimension
 13
-179.2964484589109
 23
-91.95718794591721
 33
0.0
 14
-155.2964484589109
 24
-102.9316749459172
 34
0.0
100
AcDbRotatedDimension
  0
DIMENSION
  5
3DB
330
3A
100
AcDbEntity
  8
1
100
AcDbDimension
  2
*D12
 10
-155.2964484589109
 20
-77.1929750150367
 30
0.0
 11
-127.104739878575
 21
-73.4429750150367
 31
0.0
 70
    32
  1
<>
 71
     5
 42
-1.0
 53
0.00013888888889
  3
ME10_DIM_17
100
AcDbAlignedDimension
 13
-101.296448458911
 23
-121.8316689459171
 33
0.0
 14
-155.2964484589109
 24
-102.9316749459172
 34
0.0
100
AcDbRotatedDimension
  0
DIMENSION
  5
3E6
330
3A
100
AcDbEntity
  8
1
100
AcDbDimension
  2
*D13
 10
-84.7959148332782
 20
-155.4316749459172
 30
0.0
 11
-88.5459148332782
 21
-136.760413639319
 31
0.0
 70
    32
  1
<>
 71
     5
 42
-1.0
 53
90.0
  3
ME10_DIM_18
100
AcDbAlignedDimension
 13
-155.296448458911
 23
-119.4316749459171
 33
0.0
 14
-149.0427021660919
 24
-155.4316749459172
 34
0.0
 50
90.0
100
AcDbRotatedDimension
  0
DIMENSION
  5
3F1
330
3A
100
AcDbEntity
  8
1
100
AcDbDimension
  2
*D14
 10
-70.9101896315769
 20
-201.4316749459171
 30
0.0
 11
-74.6601896315769
 21
-162.959895151963
 31
0.0
 70
    32
  1
<>
 71
     5
 42
-1.0
 53
90.0
  3
ME10_DIM_19
100
AcDbAlignedDimension
 13
-103.696445458911
 23
-119.4316749459171
 33
0.0
 14
-103.696445458911
 24
-201.4316749459171
 34
0.0
 50
90.0
100
AcDbRotatedDimension
  0
DIMENSION
  5
3FC
330
3A
100
AcDbEntity
  8
1
100
AcDbDimension
  2
*D15
 10
-26.3802447730508
 20
-236.9231554768661
 30
0.0
 11
130.5174470817458
 21
-233.1731554768661
 31
0.0
 70
    33
  1
<>
 71
     5
 42
-1.0
 53
0.00013888888889
  3
ME10_DIM_20
100
AcDbAlignedDimension
 13
301.6197552269492
 23
-197.2316559459171
 33
0.0
 14
-26.38024477305078
 24
-197.2316559459171
 34
0.0
  0
DIMENSION
  5
407
330
3A
100
AcDbEntity
  8
1
100
AcDbDimension
  2
*D16
 10
15.6197552269492
 20
-226.6271671711025
 30
0.0
 11
-6.88074168827189
 21
-222.8771671711025
 31
0.0
 70
    32
  1
42-52
 71
     5
 42
-1.0
 53
0.00013888888889
  3
ME10_DIM_21
100
AcDbAlignedDimension
 13
-26.38024477305078
 23
-197.2316559459171
 33
0.0
 14
15.6197552269492
 24
-213.4316749459171
 34
0.0
100
AcDbRotatedDimension
  0
ENDBLK
  5
3D
330
3A
100
AcDbEntity
  8
0
100
AcDbBlockEnd
  0
BLOCK
  5
3F
330
3E
100
AcDbEntity
  8
0
100
AcDbBlockBegin
  2
Deckplatte
 70
     0
 71
     0
 10
-194.8136557819528
 20
344.3798909741793
 30
0.0
  3
Deckplatte
  1

  0
LINE
  5
408
330
3E
100
AcDbEntity
  8
0
  6
Continuous
 62
     7
100
AcDbLine
 10
47.54696127910967
 20
-119.6316749459171
 30
0.0
 11
-36.3802447730508
 21
-119.6316749459171
 31
0.0
  0
LINE
  5
409
330
3E
100
AcDbEntity
  8
1
  6
Continuous
 62
     4
100
AcDbLine
 10
-36.3802447730508
 20
-119.6316749459171
 30
0.0
 11
-36.3802447730508
 21
-119.9316749459171
 31
0.0
  0
LINE
  5
40A
330
3E
100
AcDbEntity
  8
0
  6
Continuous
 62
     4
100
AcDbLine
 10
-36.3802447730508
 20
-119.6316749459171
 30
0.0
 11
-36.3802447730508
 21
-108.9316749459172
 31
0.0
  0
LINE
  5
40B
330
3E
100
AcDbEntity
  8
0
  6
Continuous
 62
     4
100
AcDbLine
 10
48.6197552269492
 20
-102.9316749459172
 30
0.0
 11
-30.3802447730508
 21
-102.9316749459172
 31
0.0
  0
LINE
  5
40C
330
3E
100
AcDbEntity
  8
0
  6
Continuous
 62
     4
100
AcDbLine
 10
-36.3802447730508
 20
-108.9316749459172
 30
0.0
 11
48.6197552269492
 21
-108.9316749459172
 31
0.0
  0
LINE
  5
40D
102
{ACAD_REACTORS
330
531
330
531
102
}
330
3E
100
AcDbEntity
  8
0
  6
Continuous
 62
     4
100
AcDbLine
 10
240.6198092130599
 20
-120.2822489459171
 30
0.0
 11
240.6198092130599
 21
-190.5808299459171
 31
0.0
  0
LINE
  5
40E
102
{ACAD_REACTORS
330
531
330
531
102
}
330
3E
100
AcDbEntity
  8
0
  6
Continuous
 62
     4
100
AcDbLine
 10
224.6197592130598
 20
-190.5808299459171
 30
0.0
 11
224.6197522130599
 21
-120.2822489459171
 31
0.0
  0
LINE
  5
40F
330
3E
100
AcDbEntity
  8
1
  6
DASH_CENTER
 62
     3
100
AcDbLine
 10
62.3991512619011
 20
-155.4316749459171
 30
0.0
 11
67.3991512619011
 21
-155.4316749459171
 31
0.0
  0
LINE
  5
410
330
3E
100
AcDbEntity
  8
1
  6
Continuous
 62
     3
100
AcDbLine
 10
67.3991512619011
 20
-155.4316749459171
 30
0.0
 11
62.3991512619011
 21
-155.4316749459171
 31
0.0
  0
LINE
  5
411
330
3E
100
AcDbEntity
  8
1
  6
DASH_CENTER
 62
     3
100
AcDbLine
 10
67.3991512619011
 20
-155.4316749459171
 30
0.0
 11
194.7743851981835
 21
-155.4316749459171
 31
0.0
  0
LINE
  5
412
330
3E
100
AcDbEntity
  8
1
  6
DASH_CENTER
 62
     3
100
AcDbLine
 10
240.6198092130599
 20
-155.4316749459171
 30
0.0
 11
321.6197552269492
 21
-155.4316749459171
 31
0.0
  0
LINE
  5
413
102
{ACAD_REACTORS
330
531
330
531
102
}
330
3E
100
AcDbEntity
  8
0
  6
Continuous
 62
     4
100
AcDbLine
 10
226.1041332130598
 20
-193.3816749459172
 30
0.0
 11
225.8998482130599
 21
-193.3068599459171
 31
0.0
  0
LINE
  5
414
102
{ACAD_REACTORS
330
531
330
531
102
}
330
3E
100
AcDbEntity
  8
0
  6
Continuous
 62
     4
100
AcDbLine
 10
226.31980621306
 20
-189.3717119459171
 30
0.0
 11
226.3198002130599
 21
-121.4913699459172
 31
0.0
  0
LINE
  5
415
102
{ACAD_REACTORS
330
531
330
531
102
}
330
3E
100
AcDbEntity
  8
0
  6
Continuous
 62
     4
100
AcDbLine
 10
226.9682892130599
 20
-120.8824379459171
 30
0.0
 11
226.9117712130598
 21
-120.8850169459171
 31
0.0
  0
LINE
  5
416
102
{ACAD_REACTORS
330
531
330
531
102
}
330
3E
100
AcDbEntity
  8
0
  6
Continuous
 62
     4
100
AcDbLine
 10
226.9117712130598
 20
-120.8850169459171
 30
0.0
 11
226.8556832130599
 21
-120.8919439459172
 31
0.0
  0
LINE
  5
417
102
{ACAD_REACTORS
330
531
330
531
102
}
330
3E
100
AcDbEntity
  8
0
  6
Continuous
 62
     4
100
AcDbLine
 10
226.8556832130599
 20
-120.8919439459172
 30
0.0
 11
226.80045021306
 21
-120.9034339459171
 31
0.0
  0
LINE
  5
418
102
{ACAD_REACTORS
330
531
330
531
102
}
330
3E
100
AcDbEntity
  8
0
  6
Continuous
 62
     4
100
AcDbLine
 10
226.80045021306
 20
-120.9034339459171
 30
0.0
 11
226.7464952130599
 21
-120.9194099459172
 31
0.0
  0
LINE
  5
419
102
{ACAD_REACTORS
330
531
330
531
102
}
330
3E
100
AcDbEntity
  8
0
  6
Continuous
 62
     4
100
AcDbLine
 10
226.7464952130599
 20
-120.9194099459172
 30
0.0
 11
226.6942302130599
 21
-120.9397349459171
 31
0.0
  0
LINE
  5
41A
102
{ACAD_REACTORS
330
531
330
531
102
}
330
3E
100
AcDbEntity
  8
0
  6
Continuous
 62
     4
100
AcDbLine
 10
226.6942302130599
 20
-120.9397349459171
 30
0.0
 11
226.6440482130599
 21
-120.9642399459172
 31
0.0
  0
LINE
  5
41B
102
{ACAD_REACTORS
330
531
330
531
102
}
330
3E
100
AcDbEntity
  8
0
  6
Continuous
 62
     4
100
AcDbLine
 10
226.6440482130599
 20
-120.9642399459172
 30
0.0
 11
226.59633321306
 21
-120.9927589459171
 31
0.0
  0
LINE
  5
41C
102
{ACAD_REACTORS
330
531
330
531
102
}
330
3E
100
AcDbEntity
  8
0
  6
Continuous
 62
     4
100
AcDbLine
 10
226.59633321306
 20
-120.9927589459171
 30
0.0
 11
226.55145021306
 21
-121.0250919459171
 31
0.0
  0
LINE
  5
41D
102
{ACAD_REACTORS
330
531
330
531
102
}
330
3E
100
AcDbEntity
  8
0
  6
Continuous
 62
     4
100
AcDbLine
 10
226.55145021306
 20
-121.0250919459171
 30
0.0
 11
226.5097422130599
 21
-121.0609659459172
 31
0.0
  0
LINE
  5
41E
102
{ACAD_REACTORS
330
531
330
531
102
}
330
3E
100
AcDbEntity
  8
0
  6
Continuous
 62
     4
100
AcDbLine
 10
226.5097422130599
 20
-121.0609659459172
 30
0.0
 11
226.4715222130598
 21
-121.1001199459171
 31
0.0
  0
LINE
  5
41F
102
{ACAD_REACTORS
330
531
330
531
102
}
330
3E
100
AcDbEntity
  8
0
  6
Continuous
 62
     4
100
AcDbLine
 10
226.4715222130598
 20
-121.1001199459171
 30
0.0
 11
226.4370792130598
 21
-121.1422489459172
 31
0.0
  0
LINE
  5
420
102
{ACAD_REACTORS
330
531
330
531
102
}
330
3E
100
AcDbEntity
  8
0
  6
Continuous
 62
     4
100
AcDbLine
 10
226.4370792130598
 20
-121.1422489459172
 30
0.0
 11
226.4066842130598
 21
-121.1870339459171
 31
0.0
  0
LINE
  5
421
102
{ACAD_REACTORS
330
531
330
531
102
}
330
3E
100
AcDbEntity
  8
0
  6
Continuous
 62
     4
100
AcDbLine
 10
226.4066842130598
 20
-121.1870339459171
 30
0.0
 11
226.38056121306
 21
-121.2341379459172
 31
0.0
  0
LINE
  5
422
102
{ACAD_REACTORS
330
531
330
531
102
}
330
3E
100
AcDbEntity
  8
0
  6
Continuous
 62
     4
100
AcDbLine
 10
226.38056121306
 20
-121.2341379459172
 30
0.0
 11
226.3589122130599
 21
-121.2831949459172
 31
0.0
  0
LINE
  5
423
102
{ACAD_REACTORS
330
531
330
531
102
}
330
3E
100
AcDbEntity
  8
0
  6
Continuous
 62
     4
100
AcDbLine
 10
226.3589122130599
 20
-121.2831949459172
 30
0.0
 11
226.3418992130599
 21
-121.3338389459171
 31
0.0
  0
LINE
  5
424
102
{ACAD_REACTORS
330
531
330
531
102
}
330
3E
100
AcDbEntity
  8
0
  6
Continuous
 62
     4
100
AcDbLine
 10
226.3418992130599
 20
-121.3338389459171
 30
0.0
 11
226.3296552130599
 21
-121.3856729459172
 31
0.0
  0
LINE
  5
425
102
{ACAD_REACTORS
330
531
330
531
102
}
330
3E
100
AcDbEntity
  8
0
  6
Continuous
 62
     4
100
AcDbLine
 10
226.3296552130599
 20
-121.3856729459172
 30
0.0
 11
226.3222702130599
 21
-121.4383309459171
 31
0.0
  0
LINE
  5
426
102
{ACAD_REACTORS
330
531
330
531
102
}
330
3E
100
AcDbEntity
  8
0
  6
Continuous
 62
     4
100
AcDbLine
 10
226.3222702130599
 20
-121.4383309459171
 30
0.0
 11
226.3198002130599
 21
-121.4913699459172
 31
0.0
  0
LINE
  5
427
102
{ACAD_REACTORS
330
531
330
531
102
}
330
3E
100
AcDbEntity
  8
0
  6
Continuous
 62
     4
100
AcDbLine
 10
226.9682892130599
 20
-120.8824379459171
 30
0.0
 11
238.27153621306
 21
-120.8824379459171
 31
0.0
  0
LINE
  5
428
102
{ACAD_REACTORS
330
531
330
531
102
}
330
3E
100
AcDbEntity
  8
0
  6
Continuous
 62
     4
100
AcDbLine
 10
238.9200262130599
 20
-121.4913699459172
 30
0.0
 11
238.9178212130599
 21
-121.4382999459172
 31
0.0
  0
LINE
  5
429
102
{ACAD_REACTORS
330
531
330
531
102
}
330
3E
100
AcDbEntity
  8
0
  6
Continuous
 62
     4
100
AcDbLine
 10
238.9178212130599
 20
-121.4382999459172
 30
0.0
 11
238.9104342130599
 21
-121.385626945917
 31
0.0
  0
LINE
  5
42A
102
{ACAD_REACTORS
330
531
330
531
102
}
330
3E
100
AcDbEntity
  8
0
  6
Continuous
 62
     4
100
AcDbLine
 10
238.9104342130599
 20
-121.385626945917
 30
0.0
 11
238.8981842130599
 21
-121.333777945917
 31
0.0
  0
LINE
  5
42B
102
{ACAD_REACTORS
330
531
330
531
102
}
330
3E
100
AcDbEntity
  8
0
  6
Continuous
 62
     4
100
AcDbLine
 10
238.8981842130599
 20
-121.333777945917
 30
0.0
 11
238.8811652130599
 21
-121.2831179459171
 31
0.0
  0
LINE
  5
42C
102
{ACAD_REACTORS
330
531
330
531
102
}
330
3E
100
AcDbEntity
  8
0
  6
Continuous
 62
     4
100
AcDbLine
 10
238.8811652130599
 20
-121.2831179459171
 30
0.0
 11
238.8595072130599
 21
-121.2340459459172
 31
0.0
  0
LINE
  5
42D
102
{ACAD_REACTORS
330
531
330
531
102
}
330
3E
100
AcDbEntity
  8
0
  6
Continuous
 62
     4
100
AcDbLine
 10
238.8595072130599
 20
-121.2340459459172
 30
0.0
 11
238.83337321306
 21
-121.1869119459171
 31
0.0
  0
LINE
  5
42E
102
{ACAD_REACTORS
330
531
330
531
102
}
330
3E
100
AcDbEntity
  8
0
  6
Continuous
 62
     4
100
AcDbLine
 10
238.83337321306
 20
-121.1869119459171
 30
0.0
 11
238.80296421306
 21
-121.1420969459171
 31
0.0
  0
LINE
  5
42F
102
{ACAD_REACTORS
330
531
330
531
102
}
330
3E
100
AcDbEntity
  8
0
  6
Continuous
 62
     4
100
AcDbLine
 10
238.80296421306
 20
-121.1420969459171
 30
0.0
 11
238.7685102130599
 21
-121.0999519459172
 31
0.0
  0
LINE
  5
430
102
{ACAD_REACTORS
330
531
330
531
102
}
330
3E
100
AcDbEntity
  8
0
  6
Continuous
 62
     4
100
AcDbLine
 10
238.7685102130599
 20
-121.0999519459172
 30
0.0
 11
238.7302742130599
 21
-121.0607979459172
 31
0.0
  0
LINE
  5
431
102
{ACAD_REACTORS
330
531
330
531
102
}
330
3E
100
AcDbEntity
  8
0
  6
Continuous
 62
     4
100
AcDbLine
 10
238.7302742130599
 20
-121.0607979459172
 30
0.0
 11
238.68854721306
 21
-121.0249089459171
 31
0.0
  0
LINE
  5
432
102
{ACAD_REACTORS
330
531
330
531
102
}
330
3E
100
AcDbEntity
  8
0
  6
Continuous
 62
     4
100
AcDbLine
 10
238.68854721306
 20
-121.0249089459171
 30
0.0
 11
238.6436462130599
 21
-120.9925759459171
 31
0.0
  0
LINE
  5
433
102
{ACAD_REACTORS
330
531
330
531
102
}
330
3E
100
AcDbEntity
  8
0
  6
Continuous
 62
     4
100
AcDbLine
 10
238.6436462130599
 20
-120.9925759459171
 30
0.0
 11
238.5959132130599
 21
-120.9640269459172
 31
0.0
  0
LINE
  5
434
102
{ACAD_REACTORS
330
531
330
531
102
}
330
3E
100
AcDbEntity
  8
0
  6
Continuous
 62
     4
100
AcDbLine
 10
238.5959132130599
 20
-120.9640269459172
 30
0.0
 11
238.5457112130599
 21
-120.9394909459171
 31
0.0
  0
LINE
  5
435
102
{ACAD_REACTORS
330
531
330
531
102
}
330
3E
100
AcDbEntity
  8
0
  6
Continuous
 62
     4
100
AcDbLine
 10
238.5457112130599
 20
-120.9394909459171
 30
0.0
 11
238.4934232130599
 21
-120.9191809459171
 31
0.0
  0
LINE
  5
436
102
{ACAD_REACTORS
330
531
330
531
102
}
330
3E
100
AcDbEntity
  8
0
  6
Continuous
 62
     4
100
AcDbLine
 10
238.4934232130599
 20
-120.9191809459171
 30
0.0
 11
238.4394462130599
 21
-120.9032049459172
 31
0.0
  0
LINE
  5
437
102
{ACAD_REACTORS
330
531
330
531
102
}
330
3E
100
AcDbEntity
  8
0
  6
Continuous
 62
     4
100
AcDbLine
 10
238.4394462130599
 20
-120.9032049459172
 30
0.0
 11
238.3841912130599
 21
-120.8916999459171
 31
0.0
  0
LINE
  5
438
102
{ACAD_REACTORS
330
531
330
531
102
}
330
3E
100
AcDbEntity
  8
0
  6
Continuous
 62
     4
100
AcDbLine
 10
238.3841912130599
 20
-120.8916999459171
 30
0.0
 11
238.3280792130599
 21
-120.8847729459171
 31
0.0
  0
LINE
  5
439
102
{ACAD_REACTORS
330
531
330
531
102
}
330
3E
100
AcDbEntity
  8
0
  6
Continuous
 62
     4
100
AcDbLine
 10
238.3280792130599
 20
-120.8847729459171
 30
0.0
 11
238.27153621306
 21
-120.8824379459171
 31
0.0
  0
LINE
  5
43A
102
{ACAD_REACTORS
330
531
330
531
102
}
330
3E
100
AcDbEntity
  8
0
  6
Continuous
 62
     4
100
AcDbLine
 10
238.9200262130599
 20
-121.4913699459172
 30
0.0
 11
238.9200262130599
 21
-189.3717119459171
 31
0.0
  0
LINE
  5
43B
102
{ACAD_REACTORS
330
531
330
531
102
}
330
3E
100
AcDbEntity
  8
0
  6
Continuous
 62
     4
100
AcDbLine
 10
238.27153621306
 20
-189.9806329459171
 30
0.0
 11
238.3280562130599
 21
-189.9780699459171
 31
0.0
  0
LINE
  5
43C
102
{ACAD_REACTORS
330
531
330
531
102
}
330
3E
100
AcDbEntity
  8
0
  6
Continuous
 62
     4
100
AcDbLine
 10
238.3280562130599
 20
-189.9780699459171
 30
0.0
 11
238.3841452130599
 21
-189.9711399459171
 31
0.0
  0
LINE
  5
43D
102
{ACAD_REACTORS
330
531
330
531
102
}
330
3E
100
AcDbEntity
  8
0
  6
Continuous
 62
     4
100
AcDbLine
 10
238.3841452130599
 20
-189.9711399459171
 30
0.0
 11
238.4393782130598
 21
-189.9596459459172
 31
0.0
  0
LINE
  5
43E
102
{ACAD_REACTORS
330
531
330
531
102
}
330
3E
100
AcDbEntity
  8
0
  6
Continuous
 62
     4
100
AcDbLine
 10
238.4393782130598
 20
-189.9596459459172
 30
0.0
 11
238.4933332130599
 21
-189.9436789459172
 31
0.0
  0
LINE
  5
43F
102
{ACAD_REACTORS
330
531
330
531
102
}
330
3E
100
AcDbEntity
  8
0
  6
Continuous
 62
     4
100
AcDbLine
 10
238.4933332130599
 20
-189.9436789459172
 30
0.0
 11
238.5456002130599
 21
-189.9233589459171
 31
0.0
  0
LINE
  5
440
102
{ACAD_REACTORS
330
531
330
531
102
}
330
3E
100
AcDbEntity
  8
0
  6
Continuous
 62
     4
100
AcDbLine
 10
238.5456002130599
 20
-189.9233589459171
 30
0.0
 11
238.5957812130599
 21
-189.8988399459171
 31
0.0
  0
LINE
  5
441
102
{ACAD_REACTORS
330
531
330
531
102
}
330
3E
100
AcDbEntity
  8
0
  6
Continuous
 62
     4
100
AcDbLine
 10
238.5957812130599
 20
-189.8988399459171
 30
0.0
 11
238.6434942130599
 21
-189.8703089459171
 31
0.0
  0
LINE
  5
442
102
{ACAD_REACTORS
330
531
330
531
102
}
330
3E
100
AcDbEntity
  8
0
  6
Continuous
 62
     4
100
AcDbLine
 10
238.6434942130599
 20
-189.8703089459171
 30
0.0
 11
238.68837721306
 21
-189.8379839459172
 31
0.0
  0
LINE
  5
443
102
{ACAD_REACTORS
330
531
330
531
102
}
330
3E
100
AcDbEntity
  8
0
  6
Continuous
 62
     4
100
AcDbLine
 10
238.68837721306
 20
-189.8379839459172
 30
0.0
 11
238.7300882130599
 21
-189.8021099459172
 31
0.0
  0
LINE
  5
444
102
{ACAD_REACTORS
330
531
330
531
102
}
330
3E
100
AcDbEntity
  8
0
  6
Continuous
 62
     4
100
AcDbLine
 10
238.7300882130599
 20
-189.8021099459172
 30
0.0
 11
238.76830821306
 21
-189.7629599459172
 31
0.0
  0
LINE
  5
445
102
{ACAD_REACTORS
330
531
330
531
102
}
330
3E
100
AcDbEntity
  8
0
  6
Continuous
 62
     4
100
AcDbLine
 10
238.76830821306
 20
-189.7629599459172
 30
0.0
 11
238.80274821306
 21
-189.7208329459172
 31
0.0
  0
LINE
  5
446
102
{ACAD_REACTORS
330
531
330
531
102
}
330
3E
100
AcDbEntity
  8
0
  6
Continuous
 62
     4
100
AcDbLine
 10
238.80274821306
 20
-189.7208329459172
 30
0.0
 11
238.8331452130599
 21
-189.6760489459171
 31
0.0
  0
LINE
  5
447
102
{ACAD_REACTORS
330
531
330
531
102
}
330
3E
100
AcDbEntity
  8
0
  6
Continuous
 62
     4
100
AcDbLine
 10
238.8331452130599
 20
-189.6760489459171
 30
0.0
 11
238.85926821306
 21
-189.6289489459171
 31
0.0
  0
LINE
  5
448
102
{ACAD_REACTORS
330
531
330
531
102
}
330
3E
100
AcDbEntity
  8
0
  6
Continuous
 62
     4
100
AcDbLine
 10
238.85926821306
 20
-189.6289489459171
 30
0.0
 11
238.88091721306
 21
-189.5798899459172
 31
0.0
  0
LINE
  5
449
102
{ACAD_REACTORS
330
531
330
531
102
}
330
3E
100
AcDbEntity
  8
0
  6
Continuous
 62
     4
100
AcDbLine
 10
238.88091721306
 20
-189.5798899459172
 30
0.0
 11
238.8979292130599
 21
-189.5292479459171
 31
0.0
  0
LINE
  5
44A
102
{ACAD_REACTORS
330
531
330
531
102
}
330
3E
100
AcDbEntity
  8
0
  6
Continuous
 62
     4
100
AcDbLine
 10
238.8979292130599
 20
-189.5292479459171
 30
0.0
 11
238.9101742130599
 21
-189.4774079459172
 31
0.0
  0
LINE
  5
44B
102
{ACAD_REACTORS
330
531
330
531
102
}
330
3E
100
AcDbEntity
  8
0
  6
Continuous
 62
     4
100
AcDbLine
 10
238.9101742130599
 20
-189.4774079459172
 30
0.0
 11
238.9175592130599
 21
-189.4247619459171
 31
0.0
  0
LINE
  5
44C
102
{ACAD_REACTORS
330
531
330
531
102
}
330
3E
100
AcDbEntity
  8
0
  6
Continuous
 62
     4
100
AcDbLine
 10
238.9175592130599
 20
-189.4247619459171
 30
0.0
 11
238.9200262130599
 21
-189.3717119459171
 31
0.0
  0
LINE
  5
44D
102
{ACAD_REACTORS
330
531
330
531
102
}
330
3E
100
AcDbEntity
  8
0
  6
Continuous
 62
     4
100
AcDbLine
 10
238.27153621306
 20
-189.9806329459171
 30
0.0
 11
226.9682972130599
 21
-189.9806329459171
 31
0.0
  0
LINE
  5
44E
102
{ACAD_REACTORS
330
531
330
531
102
}
330
3E
100
AcDbEntity
  8
0
  6
Continuous
 62
     4
100
AcDbLine
 10
226.31980621306
 20
-189.3717119459171
 30
0.0
 11
226.3220132130599
 21
-189.424782945917
 31
0.0
  0
LINE
  5
44F
102
{ACAD_REACTORS
330
531
330
531
102
}
330
3E
100
AcDbEntity
  8
0
  6
Continuous
 62
     4
100
AcDbLine
 10
226.3220132130599
 20
-189.424782945917
 30
0.0
 11
226.3294022130599
 21
-189.4774499459172
 31
0.0
  0
LINE
  5
450
102
{ACAD_REACTORS
330
531
330
531
102
}
330
3E
100
AcDbEntity
  8
0
  6
Continuous
 62
     4
100
AcDbLine
 10
226.3294022130599
 20
-189.4774499459172
 30
0.0
 11
226.34165121306
 21
-189.5293119459171
 31
0.0
  0
LINE
  5
451
102
{ACAD_REACTORS
330
531
330
531
102
}
330
3E
100
AcDbEntity
  8
0
  6
Continuous
 62
     4
100
AcDbLine
 10
226.34165121306
 20
-189.5293119459171
 30
0.0
 11
226.3586682130599
 21
-189.5799759459172
 31
0.0
  0
LINE
  5
452
102
{ACAD_REACTORS
330
531
330
531
102
}
330
3E
100
AcDbEntity
  8
0
  6
Continuous
 62
     4
100
AcDbLine
 10
226.3586682130599
 20
-189.5799759459172
 30
0.0
 11
226.38033021306
 21
-189.6290529459171
 31
0.0
  0
LINE
  5
453
102
{ACAD_REACTORS
330
531
330
531
102
}
330
3E
100
AcDbEntity
  8
0
  6
Continuous
 62
     4
100
AcDbLine
 10
226.38033021306
 20
-189.6290529459171
 30
0.0
 11
226.4064612130599
 21
-189.6761729459171
 31
0.0
  0
LINE
  5
454
102
{ACAD_REACTORS
330
531
330
531
102
}
330
3E
100
AcDbEntity
  8
0
  6
Continuous
 62
     4
100
AcDbLine
 10
226.4064612130599
 20
-189.6761729459171
 30
0.0
 11
226.4368692130599
 21
-189.7209749459172
 31
0.0
  0
LINE
  5
455
102
{ACAD_REACTORS
330
531
330
531
102
}
330
3E
100
AcDbEntity
  8
0
  6
Continuous
 62
     4
100
AcDbLine
 10
226.4368692130599
 20
-189.7209749459172
 30
0.0
 11
226.4713262130599
 21
-189.7631189459172
 31
0.0
  0
LINE
  5
456
102
{ACAD_REACTORS
330
531
330
531
102
}
330
3E
100
AcDbEntity
  8
0
  6
Continuous
 62
     4
100
AcDbLine
 10
226.4713262130599
 20
-189.7631189459172
 30
0.0
 11
226.5095622130599
 21
-189.8022849459172
 31
0.0
  0
LINE
  5
457
102
{ACAD_REACTORS
330
531
330
531
102
}
330
3E
100
AcDbEntity
  8
0
  6
Continuous
 62
     4
100
AcDbLine
 10
226.5095622130599
 20
-189.8022849459172
 30
0.0
 11
226.5512892130599
 21
-189.8381739459172
 31
0.0
  0
LINE
  5
458
102
{ACAD_REACTORS
330
531
330
531
102
}
330
3E
100
AcDbEntity
  8
0
  6
Continuous
 62
     4
100
AcDbLine
 10
226.5512892130599
 20
-189.8381739459172
 30
0.0
 11
226.5961862130599
 21
-189.8705119459172
 31
0.0
  0
LINE
  5
459
102
{ACAD_REACTORS
330
531
330
531
102
}
330
3E
100
AcDbEntity
  8
0
  6
Continuous
 62
     4
100
AcDbLine
 10
226.5961862130599
 20
-189.8705119459172
 30
0.0
 11
226.64392221306
 21
-189.8990539459172
 31
0.0
  0
LINE
  5
45A
102
{ACAD_REACTORS
330
531
330
531
102
}
330
3E
100
AcDbEntity
  8
0
  6
Continuous
 62
     4
100
AcDbLine
 10
226.64392221306
 20
-189.8990539459172
 30
0.0
 11
226.6941232130599
 21
-189.9235829459172
 31
0.0
  0
LINE
  5
45B
102
{ACAD_REACTORS
330
531
330
531
102
}
330
3E
100
AcDbEntity
  8
0
  6
Continuous
 62
     4
100
AcDbLine
 10
226.6941232130599
 20
-189.9235829459172
 30
0.0
 11
226.7464112130599
 21
-189.9439119459172
 31
0.0
  0
LINE
  5
45C
102
{ACAD_REACTORS
330
531
330
531
102
}
330
3E
100
AcDbEntity
  8
0
  6
Continuous
 62
     4
100
AcDbLine
 10
226.7464112130599
 20
-189.9439119459172
 30
0.0
 11
226.8003892130599
 21
-189.9598859459172
 31
0.0
  0
LINE
  5
45D
102
{ACAD_REACTORS
330
531
330
531
102
}
330
3E
100
AcDbEntity
  8
0
  6
Continuous
 62
     4
100
AcDbLine
 10
226.8003892130599
 20
-189.9598859459172
 30
0.0
 11
226.8556432130599
 21
-189.9713829459171
 31
0.0
  0
LINE
  5
45E
102
{ACAD_REACTORS
330
531
330
531
102
}
330
3E
100
AcDbEntity
  8
0
  6
Continuous
 62
     4
100
AcDbLine
 10
226.8556432130599
 20
-189.9713829459171
 30
0.0
 11
226.9117552130599
 21
-189.9783169459171
 31
0.0
  0
LINE
  5
45F
102
{ACAD_REACTORS
330
531
330
531
102
}
330
3E
100
AcDbEntity
  8
0
  6
Continuous
 62
     4
100
AcDbLine
 10
226.9117552130599
 20
-189.9783169459171
 30
0.0
 11
226.9682972130599
 21
-189.9806329459171
 31
0.0
  0
LINE
  5
460
102
{ACAD_REACTORS
330
531
330
531
102
}
330
3E
100
AcDbEntity
  8
0
  6
Continuous
 62
     4
100
AcDbLine
 10
225.9893162130599
 20
-117.481405945917
 30
0.0
 11
225.7391002130599
 21
-117.7020489459172
 31
0.0
  0
LINE
  5
461
102
{ACAD_REACTORS
330
531
330
531
102
}
330
3E
100
AcDbEntity
  8
0
  6
Continuous
 62
     4
100
AcDbLine
 10
225.7391002130599
 20
-117.7020489459172
 30
0.0
 11
225.5102282130599
 21
-117.9422219459171
 31
0.0
  0
LINE
  5
462
102
{ACAD_REACTORS
330
531
330
531
102
}
330
3E
100
AcDbEntity
  8
0
  6
Continuous
 62
     4
100
AcDbLine
 10
225.5102282130599
 20
-117.9422219459171
 30
0.0
 11
225.3045242130599
 21
-118.2002019459172
 31
0.0
  0
LINE
  5
463
102
{ACAD_REACTORS
330
531
330
531
102
}
330
3E
100
AcDbEntity
  8
0
  6
Continuous
 62
     4
100
AcDbLine
 10
225.3045242130599
 20
-118.2002019459172
 30
0.0
 11
225.1235612130599
 21
-118.4740359459172
 31
0.0
  0
LINE
  5
464
102
{ACAD_REACTORS
330
531
330
531
102
}
330
3E
100
AcDbEntity
  8
0
  6
Continuous
 62
     4
100
AcDbLine
 10
225.1235612130599
 20
-118.4740359459172
 30
0.0
 11
224.9687112130599
 21
-118.761618945917
 31
0.0
  0
LINE
  5
465
102
{ACAD_REACTORS
330
531
330
531
102
}
330
3E
100
AcDbEntity
  8
0
  6
Continuous
 62
     4
100
AcDbLine
 10
224.9687112130599
 20
-118.761618945917
 30
0.0
 11
224.8411612130599
 21
-119.0607829459171
 31
0.0
  0
LINE
  5
466
102
{ACAD_REACTORS
330
531
330
531
102
}
330
3E
100
AcDbEntity
  8
0
  6
Continuous
 62
     4
100
AcDbLine
 10
224.8411612130599
 20
-119.0607829459171
 30
0.0
 11
224.7418682130599
 21
-119.369238945917
 31
0.0
  0
LINE
  5
467
102
{ACAD_REACTORS
330
531
330
531
102
}
330
3E
100
AcDbEntity
  8
0
  6
Continuous
 62
     4
100
AcDbLine
 10
224.7418682130599
 20
-119.369238945917
 30
0.0
 11
224.6716012130599
 21
-119.6846539459171
 31
0.0
  0
LINE
  5
468
102
{ACAD_REACTORS
330
531
330
531
102
}
330
3E
100
AcDbEntity
  8
0
  6
Continuous
 62
     4
100
AcDbLine
 10
224.6716012130599
 20
-119.6846539459171
 30
0.0
 11
224.6308872130599
 21
-120.0046149459171
 31
0.0
  0
LINE
  5
469
102
{ACAD_REACTORS
330
531
330
531
102
}
330
3E
100
AcDbEntity
  8
0
  6
Continuous
 62
     4
100
AcDbLine
 10
224.6308872130599
 20
-120.0046149459171
 30
0.0
 11
224.6197522130599
 21
-120.2822489459171
 31
0.0
  0
LINE
  5
46A
102
{ACAD_REACTORS
330
531
330
531
102
}
330
3E
100
AcDbEntity
  8
0
  6
Continuous
 62
     4
100
AcDbLine
 10
225.9893162130599
 20
-117.481405945917
 30
0.0
 11
239.2502462130599
 21
-117.481405945917
 31
0.0
  0
LINE
  5
46B
102
{ACAD_REACTORS
330
531
330
531
102
}
330
3E
100
AcDbEntity
  8
0
  6
Continuous
 62
     4
100
AcDbLine
 10
240.6198092130599
 20
-120.2822489459171
 30
0.0
 11
240.6050622130599
 21
-119.960333945917
 31
0.0
  0
LINE
  5
46C
102
{ACAD_REACTORS
330
531
330
531
102
}
330
3E
100
AcDbEntity
  8
0
  6
Continuous
 62
     4
100
AcDbLine
 10
240.6050622130599
 20
-119.960333945917
 30
0.0
 11
240.5602522130599
 21
-119.6408609459171
 31
0.0
  0
LINE
  5
46D
102
{ACAD_REACTORS
330
531
330
531
102
}
330
3E
100
AcDbEntity
  8
0
  6
Continuous
 62
     4
100
AcDbLine
 10
240.5602522130599
 20
-119.6408609459171
 30
0.0
 11
240.4859472130599
 21
-119.3262549459171
 31
0.0
  0
LINE
  5
46E
102
{ACAD_REACTORS
330
531
330
531
102
}
330
3E
100
AcDbEntity
  8
0
  6
Continuous
 62
     4
100
AcDbLine
 10
240.4859472130599
 20
-119.3262549459171
 30
0.0
 11
240.38271321306
 21
-119.0189579459171
 31
0.0
  0
LINE
  5
46F
102
{ACAD_REACTORS
330
531
330
531
102
}
330
3E
100
AcDbEntity
  8
0
  6
Continuous
 62
     4
100
AcDbLine
 10
240.38271321306
 20
-119.0189579459171
 30
0.0
 11
240.25133521306
 21
-118.7212589459171
 31
0.0
  0
LINE
  5
470
102
{ACAD_REACTORS
330
531
330
531
102
}
330
3E
100
AcDbEntity
  8
0
  6
Continuous
 62
     4
100
AcDbLine
 10
240.25133521306
 20
-118.7212589459171
 30
0.0
 11
240.0928142130599
 21
-118.4354319459172
 31
0.0
  0
LINE
  5
471
102
{ACAD_REACTORS
330
531
330
531
102
}
330
3E
100
AcDbEntity
  8
0
  6
Continuous
 62
     4
100
AcDbLine
 10
240.0928142130599
 20
-118.4354319459172
 30
0.0
 11
239.9083562130599
 21
-118.1636729459172
 31
0.0
  0
LINE
  5
472
102
{ACAD_REACTORS
330
531
330
531
102
}
330
3E
100
AcDbEntity
  8
0
  6
Continuous
 62
     4
100
AcDbLine
 10
239.9083562130599
 20
-118.1636729459172
 30
0.0
 11
239.6993642130599
 21
-117.9080269459171
 31
0.0
  0
LINE
  5
473
102
{ACAD_REACTORS
330
531
330
531
102
}
330
3E
100
AcDbEntity
  8
0
  6
Continuous
 62
     4
100
AcDbLine
 10
239.6993642130599
 20
-117.9080269459171
 30
0.0
 11
239.4674302130599
 21
-117.6704479459172
 31
0.0
  0
LINE
  5
474
102
{ACAD_REACTORS
330
531
330
531
102
}
330
3E
100
AcDbEntity
  8
0
  6
Continuous
 62
     4
100
AcDbLine
 10
239.4674302130599
 20
-117.6704479459172
 30
0.0
 11
239.2502462130599
 21
-117.481405945917
 31
0.0
  0
LINE
  5
475
102
{ACAD_REACTORS
330
531
330
531
102
}
330
3E
100
AcDbEntity
  8
0
  6
Continuous
 62
     4
100
AcDbLine
 10
239.2502462130599
 20
-193.3816749459172
 30
0.0
 11
239.5003992130599
 21
-193.1610009459171
 31
0.0
  0
LINE
  5
476
102
{ACAD_REACTORS
330
531
330
531
102
}
330
3E
100
AcDbEntity
  8
0
  6
Continuous
 62
     4
100
AcDbLine
 10
239.5003992130599
 20
-193.1610009459171
 30
0.0
 11
239.72927121306
 21
-192.9208529459172
 31
0.0
  0
LINE
  5
477
102
{ACAD_REACTORS
330
531
330
531
102
}
330
3E
100
AcDbEntity
  8
0
  6
Continuous
 62
     4
100
AcDbLine
 10
239.72927121306
 20
-192.9208529459172
 30
0.0
 11
239.9349732130599
 21
-192.6628959459171
 31
0.0
  0
LINE
  5
478
102
{ACAD_REACTORS
330
531
330
531
102
}
330
3E
100
AcDbEntity
  8
0
  6
Continuous
 62
     4
100
AcDbLine
 10
239.9349732130599
 20
-192.6628959459171
 30
0.0
 11
240.1159402130599
 21
-192.3890929459172
 31
0.0
  0
LINE
  5
479
102
{ACAD_REACTORS
330
531
330
531
102
}
330
3E
100
AcDbEntity
  8
0
  6
Continuous
 62
     4
100
AcDbLine
 10
240.1159402130599
 20
-192.3890929459172
 30
0.0
 11
240.2707932130599
 21
-192.1015289459172
 31
0.0
  0
LINE
  5
47A
102
{ACAD_REACTORS
330
531
330
531
102
}
330
3E
100
AcDbEntity
  8
0
  6
Continuous
 62
     4
100
AcDbLine
 10
240.2707932130599
 20
-192.1015289459172
 30
0.0
 11
240.39835421306
 21
-191.8023899459171
 31
0.0
  0
LINE
  5
47B
102
{ACAD_REACTORS
330
531
330
531
102
}
330
3E
100
AcDbEntity
  8
0
  6
Continuous
 62
     4
100
AcDbLine
 10
240.39835421306
 20
-191.8023899459171
 30
0.0
 11
240.4976532130599
 21
-191.4939549459171
 31
0.0
  0
LINE
  5
47C
102
{ACAD_REACTORS
330
531
330
531
102
}
330
3E
100
AcDbEntity
  8
0
  6
Continuous
 62
     4
100
AcDbLine
 10
240.4976532130599
 20
-191.4939549459171
 30
0.0
 11
240.5679342130599
 21
-191.1785709459171
 31
0.0
  0
LINE
  5
47D
102
{ACAD_REACTORS
330
531
330
531
102
}
330
3E
100
AcDbEntity
  8
0
  6
Continuous
 62
     4
100
AcDbLine
 10
240.5679342130599
 20
-191.1785709459171
 30
0.0
 11
240.6086622130599
 21
-190.8586379459171
 31
0.0
  0
LINE
  5
47E
102
{ACAD_REACTORS
330
531
330
531
102
}
330
3E
100
AcDbEntity
  8
0
  6
Continuous
 62
     4
100
AcDbLine
 10
240.6086622130599
 20
-190.8586379459171
 30
0.0
 11
240.6198092130599
 21
-190.5808299459171
 31
0.0
  0
LINE
  5
47F
102
{ACAD_REACTORS
330
531
330
531
102
}
330
3E
100
AcDbEntity
  8
0
  6
Continuous
 62
     4
100
AcDbLine
 10
239.2502462130599
 20
-193.3816749459172
 30
0.0
 11
226.1041332130598
 21
-193.3816749459172
 31
0.0
  0
LINE
  5
480
102
{ACAD_REACTORS
330
531
330
531
102
}
330
3E
100
AcDbEntity
  8
0
  6
Continuous
 62
     4
100
AcDbLine
 10
224.6197592130598
 20
-190.5808299459171
 30
0.0
 11
224.63488321306
 21
-190.9027429459172
 31
0.0
  0
LINE
  5
481
102
{ACAD_REACTORS
330
531
330
531
102
}
330
3E
100
AcDbEntity
  8
0
  6
Continuous
 62
     4
100
AcDbLine
 10
224.63488321306
 20
-190.9027429459172
 30
0.0
 11
224.67968821306
 21
-191.2222049459172
 31
0.0
  0
LINE
  5
482
102
{ACAD_REACTORS
330
531
330
531
102
}
330
3E
100
AcDbEntity
  8
0
  6
Continuous
 62
     4
100
AcDbLine
 10
224.67968821306
 20
-191.2222049459172
 30
0.0
 11
224.7539932130598
 21
-191.5367859459171
 31
0.0
  0
LINE
  5
483
102
{ACAD_REACTORS
330
531
330
531
102
}
330
3E
100
AcDbEntity
  8
0
  6
Continuous
 62
     4
100
AcDbLine
 10
224.7539932130598
 20
-191.5367859459171
 30
0.0
 11
224.8572242130599
 21
-191.8440919459171
 31
0.0
  0
LINE
  5
484
102
{ACAD_REACTORS
330
531
330
531
102
}
330
3E
100
AcDbEntity
  8
0
  6
Continuous
 62
     4
100
AcDbLine
 10
224.8572242130599
 20
-191.8440919459171
 30
0.0
 11
224.9885992130599
 21
-192.1417829459172
 31
0.0
  0
LINE
  5
485
102
{ACAD_REACTORS
330
531
330
531
102
}
330
3E
100
AcDbEntity
  8
0
  6
Continuous
 62
     4
100
AcDbLine
 10
224.9885992130599
 20
-192.1417829459172
 30
0.0
 11
225.1471172130599
 21
-192.4275949459171
 31
0.0
  0
LINE
  5
486
102
{ACAD_REACTORS
330
531
330
531
102
}
330
3E
100
AcDbEntity
  8
0
  6
Continuous
 62
     4
100
AcDbLine
 10
225.1471172130599
 20
-192.4275949459171
 30
0.0
 11
225.33156921306
 21
-192.6993519459172
 31
0.0
  0
LINE
  5
487
102
{ACAD_REACTORS
330
531
330
531
102
}
330
3E
100
AcDbEntity
  8
0
  6
Continuous
 62
     4
100
AcDbLine
 10
225.33156921306
 20
-192.6993519459172
 30
0.0
 11
225.5405552130598
 21
-192.9549849459172
 31
0.0
  0
LINE
  5
488
102
{ACAD_REACTORS
330
531
330
531
102
}
330
3E
100
AcDbEntity
  8
0
  6
Continuous
 62
     4
100
AcDbLine
 10
225.5405552130598
 20
-192.9549849459172
 30
0.0
 11
225.77248321306
 21
-193.1925499459172
 31
0.0
  0
LINE
  5
489
102
{ACAD_REACTORS
330
531
330
531
102
}
330
3E
100
AcDbEntity
  8
0
  6
Continuous
 62
     4
100
AcDbLine
 10
225.77248321306
 20
-193.1925499459172
 30
0.0
 11
225.8998482130599
 21
-193.3068599459171
 31
0.0
  0
LINE
  5
48A
102
{ACAD_REACTORS
330
52D
330
52D
102
}
330
3E
100
AcDbEntity
  8
0
  6
Continuous
 62
     4
100
AcDbLine
 10
228.1197482130599
 20
-183.6010159459172
 30
0.0
 11
228.1197482130599
 21
-176.0750229459171
 31
0.0
  0
LINE
  5
48B
102
{ACAD_REACTORS
330
52D
330
52D
102
}
330
3E
100
AcDbEntity
  8
0
  6
Continuous
 62
     4
100
AcDbLine
 10
229.57661921306
 20
-173.0562889459171
 30
0.0
 11
229.3101972130599
 21
-173.2938449459171
 31
0.0
  0
LINE
  5
48C
102
{ACAD_REACTORS
330
52D
330
52D
102
}
330
3E
100
AcDbEntity
  8
0
  6
Continuous
 62
     4
100
AcDbLine
 10
229.3101972130599
 20
-173.2938449459171
 30
0.0
 11
229.06675421306
 21
-173.5527679459172
 31
0.0
  0
LINE
  5
48D
102
{ACAD_REACTORS
330
52D
330
52D
102
}
330
3E
100
AcDbEntity
  8
0
  6
Continuous
 62
     4
100
AcDbLine
 10
229.06675421306
 20
-173.5527679459172
 30
0.0
 11
228.8479642130598
 21
-173.8308899459172
 31
0.0
  0
LINE
  5
48E
102
{ACAD_REACTORS
330
52D
330
52D
102
}
330
3E
100
AcDbEntity
  8
0
  6
Continuous
 62
     4
100
AcDbLine
 10
228.8479642130598
 20
-173.8308899459172
 30
0.0
 11
228.6554922130599
 21
-174.1260899459172
 31
0.0
  0
LINE
  5
48F
102
{ACAD_REACTORS
330
52D
330
52D
102
}
330
3E
100
AcDbEntity
  8
0
  6
Continuous
 62
     4
100
AcDbLine
 10
228.6554922130599
 20
-174.1260899459172
 30
0.0
 11
228.4908002130599
 21
-174.4361219459172
 31
0.0
  0
LINE
  5
490
102
{ACAD_REACTORS
330
52D
330
52D
102
}
330
3E
100
AcDbEntity
  8
0
  6
Continuous
 62
     4
100
AcDbLine
 10
228.4908002130599
 20
-174.4361219459172
 30
0.0
 11
228.3551452130599
 21
-174.7586319459171
 31
0.0
  0
LINE
  5
491
102
{ACAD_REACTORS
330
52D
330
52D
102
}
330
3E
100
AcDbEntity
  8
0
  6
Continuous
 62
     4
100
AcDbLine
 10
228.3551452130599
 20
-174.7586319459171
 30
0.0
 11
228.2495582130599
 21
-175.0911509459172
 31
0.0
  0
LINE
  5
492
102
{ACAD_REACTORS
330
52D
330
52D
102
}
330
3E
100
AcDbEntity
  8
0
  6
Continuous
 62
     4
100
AcDbLine
 10
228.2495582130599
 20
-175.0911509459172
 30
0.0
 11
228.1748402130599
 21
-175.4311669459172
 31
0.0
  0
LINE
  5
493
102
{ACAD_REACTORS
330
52D
330
52D
102
}
330
3E
100
AcDbEntity
  8
0
  6
Continuous
 62
     4
100
AcDbLine
 10
228.1748402130599
 20
-175.4311669459172
 30
0.0
 11
228.1315662130599
 21
-175.7760769459172
 31
0.0
  0
LINE
  5
494
102
{ACAD_REACTORS
330
52D
330
52D
102
}
330
3E
100
AcDbEntity
  8
0
  6
Continuous
 62
     4
100
AcDbLine
 10
228.1315662130599
 20
-175.7760769459172
 30
0.0
 11
228.1197482130599
 21
-176.0750229459171
 31
0.0
  0
LINE
  5
495
102
{ACAD_REACTORS
330
52D
330
52D
102
}
330
3E
100
AcDbEntity
  8
0
  6
Continuous
 62
     4
100
AcDbLine
 10
229.57661921306
 20
-173.0562889459171
 30
0.0
 11
229.8677702130599
 21
-173.0562889459171
 31
0.0
  0
LINE
  5
496
102
{ACAD_REACTORS
330
52D
330
52D
102
}
330
3E
100
AcDbEntity
  8
0
  6
Continuous
 62
     4
100
AcDbLine
 10
229.8677702130599
 20
-173.0562889459171
 30
0.0
 11
229.8677702130599
 21
-175.4191429459172
 31
0.0
  0
LINE
  5
497
102
{ACAD_REACTORS
330
52D
330
52D
102
}
330
3E
100
AcDbEntity
  8
0
  6
Continuous
 62
     4
100
AcDbLine
 10
229.8677702130599
 20
-175.4191429459172
 30
0.0
 11
228.71777021306
 21
-175.4191429459172
 31
0.0
  0
LINE
  5
498
102
{ACAD_REACTORS
330
52D
330
52D
102
}
330
3E
100
AcDbEntity
  8
0
  6
Continuous
 62
     4
100
AcDbLine
 10
228.71777021306
 20
-175.4191429459172
 30
0.0
 11
228.71777021306
 21
-184.2568909459172
 31
0.0
  0
LINE
  5
499
102
{ACAD_REACTORS
330
52D
330
52D
102
}
330
3E
100
AcDbEntity
  8
0
  6
Continuous
 62
     4
100
AcDbLine
 10
228.71777021306
 20
-184.2568909459172
 30
0.0
 11
236.7220042130599
 21
-184.2568909459172
 31
0.0
  0
LINE
  5
49A
102
{ACAD_REACTORS
330
52D
330
52D
102
}
330
3E
100
AcDbEntity
  8
0
  6
Continuous
 62
     4
100
AcDbLine
 10
236.7220042130599
 20
-184.2568909459172
 30
0.0
 11
236.7220042130599
 21
-175.4191429459172
 31
0.0
  0
LINE
  5
49B
102
{ACAD_REACTORS
330
52D
330
52D
102
}
330
3E
100
AcDbEntity
  8
0
  6
Continuous
 62
     4
100
AcDbLine
 10
236.7220042130599
 20
-175.4191429459172
 30
0.0
 11
233.01875821306
 21
-175.4191429459172
 31
0.0
  0
LINE
  5
49C
102
{ACAD_REACTORS
330
52D
330
52D
102
}
330
3E
100
AcDbEntity
  8
0
  6
Continuous
 62
     4
100
AcDbLine
 10
233.01875821306
 20
-175.4191429459172
 30
0.0
 11
233.01875821306
 21
-179.1818759459171
 31
0.0
  0
LINE
  5
49D
102
{ACAD_REACTORS
330
52D
330
52D
102
}
330
3E
100
AcDbEntity
  8
0
  6
Continuous
 62
     4
100
AcDbLine
 10
233.01875821306
 20
-179.1818759459171
 30
0.0
 11
232.4207352130599
 21
-179.1818759459171
 31
0.0
  0
LINE
  5
49E
102
{ACAD_REACTORS
330
52D
330
52D
102
}
330
3E
100
AcDbEntity
  8
0
  6
Continuous
 62
     4
100
AcDbLine
 10
232.4207352130599
 20
-179.1818759459171
 30
0.0
 11
232.4207352130599
 21
-173.0562889459171
 31
0.0
  0
LINE
  5
49F
102
{ACAD_REACTORS
330
52D
330
52D
102
}
330
3E
100
AcDbEntity
  8
0
  6
Continuous
 62
     4
100
AcDbLine
 10
232.4207352130599
 20
-173.0562889459171
 30
0.0
 11
235.8631542130599
 21
-173.0562889459171
 31
0.0
  0
LINE
  5
4A0
102
{ACAD_REACTORS
330
52D
330
52D
102
}
330
3E
100
AcDbEntity
  8
0
  6
Continuous
 62
     4
100
AcDbLine
 10
237.3200272130599
 20
-176.0750229459171
 30
0.0
 11
237.3038182130599
 21
-175.7280149459171
 31
0.0
  0
LINE
  5
4A1
102
{ACAD_REACTORS
330
52D
330
52D
102
}
330
3E
100
AcDbEntity
  8
0
  6
Continuous
 62
     4
100
AcDbLine
 10
237.3038182130599
 20
-175.7280149459171
 30
0.0
 11
237.2561532130598
 21
-175.3836509459171
 31
0.0
  0
LINE
  5
4A2
102
{ACAD_REACTORS
330
52D
330
52D
102
}
330
3E
100
AcDbEntity
  8
0
  6
Continuous
 62
     4
100
AcDbLine
 10
237.2561532130598
 20
-175.3836509459171
 30
0.0
 11
237.17711521306
 21
-175.0445469459172
 31
0.0
  0
LINE
  5
4A3
102
{ACAD_REACTORS
330
52D
330
52D
102
}
330
3E
100
AcDbEntity
  8
0
  6
Continuous
 62
     4
100
AcDbLine
 10
237.17711521306
 20
-175.0445469459172
 30
0.0
 11
237.0673072130599
 21
-174.7132829459171
 31
0.0
  0
LINE
  5
4A4
102
{ACAD_REACTORS
330
52D
330
52D
102
}
330
3E
100
AcDbEntity
  8
0
  6
Continuous
 62
     4
100
AcDbLine
 10
237.0673072130599
 20
-174.7132829459171
 30
0.0
 11
236.9275622130599
 21
-174.3923869459171
 31
0.0
  0
LINE
  5
4A5
102
{ACAD_REACTORS
330
52D
330
52D
102
}
330
3E
100
AcDbEntity
  8
0
  6
Continuous
 62
     4
100
AcDbLine
 10
236.9275622130599
 20
-174.3923869459171
 30
0.0
 11
236.7589452130598
 21
-174.0842999459172
 31
0.0
  0
LINE
  5
4A6
102
{ACAD_REACTORS
330
52D
330
52D
102
}
330
3E
100
AcDbEntity
  8
0
  6
Continuous
 62
     4
100
AcDbLine
 10
236.7589452130598
 20
-174.0842999459172
 30
0.0
 11
236.5627382130599
 21
-173.7913539459172
 31
0.0
  0
LINE
  5
4A7
102
{ACAD_REACTORS
330
52D
330
52D
102
}
330
3E
100
AcDbEntity
  8
0
  6
Continuous
 62
     4
100
AcDbLine
 10
236.5627382130599
 20
-173.7913539459172
 30
0.0
 11
236.34043721306
 21
-173.5157959459171
 31
0.0
  0
LINE
  5
4A8
102
{ACAD_REACTORS
330
52D
330
52D
102
}
330
3E
100
AcDbEntity
  8
0
  6
Continuous
 62
     4
100
AcDbLine
 10
236.34043721306
 20
-173.5157959459171
 30
0.0
 11
236.09373121306
 21
-173.2597149459171
 31
0.0
  0
LINE
  5
4A9
102
{ACAD_REACTORS
330
52D
330
52D
102
}
330
3E
100
AcDbEntity
  8
0
  6
Continuous
 62
     4
100
AcDbLine
 10
236.09373121306
 20
-173.2597149459171
 30
0.0
 11
235.8631542130599
 21
-173.0562889459171
 31
0.0
  0
LINE
  5
4AA
102
{ACAD_REACTORS
330
52D
330
52D
102
}
330
3E
100
AcDbEntity
  8
0
  6
Continuous
 62
     4
100
AcDbLine
 10
237.3200272130599
 20
-176.0750229459171
 30
0.0
 11
237.3200272130599
 21
-183.6010159459172
 31
0.0
  0
LINE
  5
4AB
102
{ACAD_REACTORS
330
52D
330
52D
102
}
330
3E
100
AcDbEntity
  8
0
  6
Continuous
 62
     4
100
AcDbLine
 10
235.8631542130599
 20
-186.6197489459172
 30
0.0
 11
236.1295782130598
 21
-186.3821909459171
 31
0.0
  0
LINE
  5
4AC
102
{ACAD_REACTORS
330
52D
330
52D
102
}
330
3E
100
AcDbEntity
  8
0
  6
Continuous
 62
     4
100
AcDbLine
 10
236.1295782130598
 20
-186.3821909459171
 30
0.0
 11
236.3730202130599
 21
-186.1232659459171
 31
0.0
  0
LINE
  5
4AD
102
{ACAD_REACTORS
330
52D
330
52D
102
}
330
3E
100
AcDbEntity
  8
0
  6
Continuous
 62
     4
100
AcDbLine
 10
236.3730202130599
 20
-186.1232659459171
 30
0.0
 11
236.5918102130599
 21
-185.8451459459171
 31
0.0
  0
LINE
  5
4AE
102
{ACAD_REACTORS
330
52D
330
52D
102
}
330
3E
100
AcDbEntity
  8
0
  6
Continuous
 62
     4
100
AcDbLine
 10
236.5918102130599
 20
-185.8451459459171
 30
0.0
 11
236.78428321306
 21
-185.5499449459171
 31
0.0
  0
LINE
  5
4AF
102
{ACAD_REACTORS
330
52D
330
52D
102
}
330
3E
100
AcDbEntity
  8
0
  6
Continuous
 62
     4
100
AcDbLine
 10
236.78428321306
 20
-185.5499449459171
 30
0.0
 11
236.9489742130599
 21
-185.2399109459171
 31
0.0
  0
LINE
  5
4B0
102
{ACAD_REACTORS
330
52D
330
52D
102
}
330
3E
100
AcDbEntity
  8
0
  6
Continuous
 62
     4
100
AcDbLine
 10
236.9489742130599
 20
-185.2399109459171
 30
0.0
 11
237.0846292130599
 21
-184.9174089459171
 31
0.0
  0
LINE
  5
4B1
102
{ACAD_REACTORS
330
52D
330
52D
102
}
330
3E
100
AcDbEntity
  8
0
  6
Continuous
 62
     4
100
AcDbLine
 10
237.0846292130599
 20
-184.9174089459171
 30
0.0
 11
237.19021821306
 21
-184.584881945917
 31
0.0
  0
LINE
  5
4B2
102
{ACAD_REACTORS
330
52D
330
52D
102
}
330
3E
100
AcDbEntity
  8
0
  6
Continuous
 62
     4
100
AcDbLine
 10
237.19021821306
 20
-184.584881945917
 30
0.0
 11
237.2649352130599
 21
-184.2448719459172
 31
0.0
  0
LINE
  5
4B3
102
{ACAD_REACTORS
330
52D
330
52D
102
}
330
3E
100
AcDbEntity
  8
0
  6
Continuous
 62
     4
100
AcDbLine
 10
237.2649352130599
 20
-184.2448719459172
 30
0.0
 11
237.3082122130599
 21
-183.8999609459172
 31
0.0
  0
LINE
  5
4B4
102
{ACAD_REACTORS
330
52D
330
52D
102
}
330
3E
100
AcDbEntity
  8
0
  6
Continuous
 62
     4
100
AcDbLine
 10
237.3082122130599
 20
-183.8999609459172
 30
0.0
 11
237.3200272130599
 21
-183.6010159459172
 31
0.0
  0
LINE
  5
4B5
102
{ACAD_REACTORS
330
52D
330
52D
102
}
330
3E
100
AcDbEntity
  8
0
  6
Continuous
 62
     4
100
AcDbLine
 10
235.8631542130599
 20
-186.6197489459172
 30
0.0
 11
229.57661921306
 21
-186.6197489459172
 31
0.0
  0
LINE
  5
4B6
102
{ACAD_REACTORS
330
52D
330
52D
102
}
330
3E
100
AcDbEntity
  8
0
  6
Continuous
 62
     4
100
AcDbLine
 10
228.1197482130599
 20
-183.6010159459172
 30
0.0
 11
228.13595721306
 21
-183.9480239459171
 31
0.0
  0
LINE
  5
4B7
102
{ACAD_REACTORS
330
52D
330
52D
102
}
330
3E
100
AcDbEntity
  8
0
  6
Continuous
 62
     4
100
AcDbLine
 10
228.13595721306
 20
-183.9480239459171
 30
0.0
 11
228.1836212130599
 21
-184.2923879459172
 31
0.0
  0
LINE
  5
4B8
102
{ACAD_REACTORS
330
52D
330
52D
102
}
330
3E
100
AcDbEntity
  8
0
  6
Continuous
 62
     4
100
AcDbLine
 10
228.1836212130599
 20
-184.2923879459172
 30
0.0
 11
228.2626602130599
 21
-184.6314919459171
 31
0.0
  0
LINE
  5
4B9
102
{ACAD_REACTORS
330
52D
330
52D
102
}
330
3E
100
AcDbEntity
  8
0
  6
Continuous
 62
     4
100
AcDbLine
 10
228.2626602130599
 20
-184.6314919459171
 30
0.0
 11
228.3724682130599
 21
-184.9627509459172
 31
0.0
  0
LINE
  5
4BA
102
{ACAD_REACTORS
330
52D
330
52D
102
}
330
3E
100
AcDbEntity
  8
0
  6
Continuous
 62
     4
100
AcDbLine
 10
228.3724682130599
 20
-184.9627509459172
 30
0.0
 11
228.51221421306
 21
-185.2836489459172
 31
0.0
  0
LINE
  5
4BB
102
{ACAD_REACTORS
330
52D
330
52D
102
}
330
3E
100
AcDbEntity
  8
0
  6
Continuous
 62
     4
100
AcDbLine
 10
228.51221421306
 20
-185.2836489459172
 30
0.0
 11
228.6808292130599
 21
-185.5917389459172
 31
0.0
  0
LINE
  5
4BC
102
{ACAD_REACTORS
330
52D
330
52D
102
}
330
3E
100
AcDbEntity
  8
0
  6
Continuous
 62
     4
100
AcDbLine
 10
228.6808292130599
 20
-185.5917389459172
 30
0.0
 11
228.8770362130599
 21
-185.8846799459171
 31
0.0
  0
LINE
  5
4BD
102
{ACAD_REACTORS
330
52D
330
52D
102
}
330
3E
100
AcDbEntity
  8
0
  6
Continuous
 62
     4
100
AcDbLine
 10
228.8770362130599
 20
-185.8846799459171
 30
0.0
 11
229.0993392130599
 21
-186.160239945917
 31
0.0
  0
LINE
  5
4BE
102
{ACAD_REACTORS
330
52D
330
52D
102
}
330
3E
100
AcDbEntity
  8
0
  6
Continuous
 62
     4
100
AcDbLine
 10
229.0993392130599
 20
-186.160239945917
 30
0.0
 11
229.3460432130599
 21
-186.4163229459171
 31
0.0
  0
LINE
  5
4BF
102
{ACAD_REACTORS
330
52D
330
52D
102
}
330
3E
100
AcDbEntity
  8
0
  6
Continuous
 62
     4
100
AcDbLine
 10
229.3460432130599
 20
-186.4163229459171
 30
0.0
 11
229.57661921306
 21
-186.6197489459172
 31
0.0
  0
LINE
  5
4C0
102
{ACAD_REACTORS
330
52E
330
52E
102
}
330
3E
100
AcDbEntity
  8
0
  6
Continuous
 62
     4
100
AcDbLine
 10
228.1197482130599
 20
-169.6954069459171
 30
0.0
 11
228.1197482130599
 21
-156.1319419459172
 31
0.0
  0
LINE
  5
4C1
102
{ACAD_REACTORS
330
52E
330
52E
102
}
330
3E
100
AcDbEntity
  8
0
  6
Continuous
 62
     4
100
AcDbLine
 10
228.1197482130599
 20
-156.1319419459172
 30
0.0
 11
228.71777021306
 21
-156.1319419459172
 31
0.0
  0
LINE
  5
4C2
102
{ACAD_REACTORS
330
52E
330
52E
102
}
330
3E
100
AcDbEntity
  8
0
  6
Continuous
 62
     4
100
AcDbLine
 10
228.71777021306
 20
-156.1319419459172
 30
0.0
 11
228.71777021306
 21
-167.3325489459172
 31
0.0
  0
LINE
  5
4C3
102
{ACAD_REACTORS
330
52E
330
52E
102
}
330
3E
100
AcDbEntity
  8
0
  6
Continuous
 62
     4
100
AcDbLine
 10
228.71777021306
 20
-167.3325489459172
 30
0.0
 11
232.4207352130599
 21
-167.3325489459172
 31
0.0
  0
LINE
  5
4C4
102
{ACAD_REACTORS
330
52E
330
52E
102
}
330
3E
100
AcDbEntity
  8
0
  6
Continuous
 62
     4
100
AcDbLine
 10
232.4207352130599
 20
-167.3325489459172
 30
0.0
 11
232.4207352130599
 21
-156.1319419459172
 31
0.0
  0
LINE
  5
4C5
102
{ACAD_REACTORS
330
52E
330
52E
102
}
330
3E
100
AcDbEntity
  8
0
  6
Continuous
 62
     4
100
AcDbLine
 10
232.4207352130599
 20
-156.1319419459172
 30
0.0
 11
233.01875821306
 21
-156.1319419459172
 31
0.0
  0
LINE
  5
4C6
102
{ACAD_REACTORS
330
52E
330
52E
102
}
330
3E
100
AcDbEntity
  8
0
  6
Continuous
 62
     4
100
AcDbLine
 10
233.01875821306
 20
-156.1319419459172
 30
0.0
 11
233.01875821306
 21
-167.3325489459172
 31
0.0
  0
LINE
  5
4C7
102
{ACAD_REACTORS
330
52E
330
52E
102
}
330
3E
100
AcDbEntity
  8
0
  6
Continuous
 62
     4
100
AcDbLine
 10
233.01875821306
 20
-167.3325489459172
 30
0.0
 11
236.7220042130599
 21
-167.3325489459172
 31
0.0
  0
LINE
  5
4C8
102
{ACAD_REACTORS
330
52E
330
52E
102
}
330
3E
100
AcDbEntity
  8
0
  6
Continuous
 62
     4
100
AcDbLine
 10
236.7220042130599
 20
-167.3325489459172
 30
0.0
 11
236.7220042130599
 21
-156.1319419459172
 31
0.0
  0
LINE
  5
4C9
102
{ACAD_REACTORS
330
52E
330
52E
102
}
330
3E
100
AcDbEntity
  8
0
  6
Continuous
 62
     4
100
AcDbLine
 10
236.7220042130599
 20
-156.1319419459172
 30
0.0
 11
237.3200272130599
 21
-156.1319419459172
 31
0.0
  0
LINE
  5
4CA
102
{ACAD_REACTORS
330
52E
330
52E
102
}
330
3E
100
AcDbEntity
  8
0
  6
Continuous
 62
     4
100
AcDbLine
 10
237.3200272130599
 20
-156.1319419459172
 30
0.0
 11
237.3200272130599
 21
-169.6954069459171
 31
0.0
  0
LINE
  5
4CB
102
{ACAD_REACTORS
330
52E
330
52E
102
}
330
3E
100
AcDbEntity
  8
0
  6
Continuous
 62
     4
100
AcDbLine
 10
237.3200272130599
 20
-169.6954069459171
 30
0.0
 11
228.1197482130599
 21
-169.6954069459171
 31
0.0
  0
LINE
  5
4CC
102
{ACAD_REACTORS
330
52F
330
52F
102
}
330
3E
100
AcDbEntity
  8
0
  6
Continuous
 62
     4
100
AcDbLine
 10
228.1197482130599
 20
-153.7513189459172
 30
0.0
 11
228.1197482130599
 21
-140.1878579459172
 31
0.0
  0
LINE
  5
4CD
102
{ACAD_REACTORS
330
52F
330
52F
102
}
330
3E
100
AcDbEntity
  8
0
  6
Continuous
 62
     4
100
AcDbLine
 10
228.1197482130599
 20
-140.1878579459172
 30
0.0
 11
229.0170622130599
 21
-140.1878579459172
 31
0.0
  0
LINE
  5
4CE
102
{ACAD_REACTORS
330
52F
330
52F
102
}
330
3E
100
AcDbEntity
  8
0
  6
Continuous
 62
     4
100
AcDbLine
 10
229.0170622130599
 20
-140.1878579459172
 30
0.0
 11
236.7220042130599
 21
-152.4016489459171
 31
0.0
  0
LINE
  5
4CF
102
{ACAD_REACTORS
330
52F
330
52F
102
}
330
3E
100
AcDbEntity
  8
0
  6
Continuous
 62
     4
100
AcDbLine
 10
236.7220042130599
 20
-152.4016489459171
 30
0.0
 11
236.7220042130599
 21
-140.1878579459172
 31
0.0
  0
LINE
  5
4D0
102
{ACAD_REACTORS
330
52F
330
52F
102
}
330
3E
100
AcDbEntity
  8
0
  6
Continuous
 62
     4
100
AcDbLine
 10
236.7220042130599
 20
-140.1878579459172
 30
0.0
 11
237.3200272130599
 21
-140.1878579459172
 31
0.0
  0
LINE
  5
4D1
102
{ACAD_REACTORS
330
52F
330
52F
102
}
330
3E
100
AcDbEntity
  8
0
  6
Continuous
 62
     4
100
AcDbLine
 10
237.3200272130599
 20
-140.1878579459172
 30
0.0
 11
237.3200272130599
 21
-153.7513189459172
 31
0.0
  0
LINE
  5
4D2
102
{ACAD_REACTORS
330
52F
330
52F
102
}
330
3E
100
AcDbEntity
  8
0
  6
Continuous
 62
     4
100
AcDbLine
 10
237.3200272130599
 20
-153.7513189459172
 30
0.0
 11
236.4227122130598
 21
-153.7513189459172
 31
0.0
  0
LINE
  5
4D3
102
{ACAD_REACTORS
330
52F
330
52F
102
}
330
3E
100
AcDbEntity
  8
0
  6
Continuous
 62
     4
100
AcDbLine
 10
236.4227122130598
 20
-153.7513189459172
 30
0.0
 11
228.71777021306
 21
-141.5375209459172
 31
0.0
  0
LINE
  5
4D4
102
{ACAD_REACTORS
330
52F
330
52F
102
}
330
3E
100
AcDbEntity
  8
0
  6
Continuous
 62
     4
100
AcDbLine
 10
228.71777021306
 20
-141.5375209459172
 30
0.0
 11
228.71777021306
 21
-153.7513189459172
 31
0.0
  0
LINE
  5
4D5
102
{ACAD_REACTORS
330
52F
330
52F
102
}
330
3E
100
AcDbEntity
  8
0
  6
Continuous
 62
     4
100
AcDbLine
 10
228.71777021306
 20
-153.7513189459172
 30
0.0
 11
228.1197482130599
 21
-153.7513189459172
 31
0.0
  0
LINE
  5
4D6
102
{ACAD_REACTORS
330
530
330
530
102
}
330
3E
100
AcDbEntity
  8
0
  6
Continuous
 62
     4
100
AcDbLine
 10
228.1197482130599
 20
-137.8072349459172
 30
0.0
 11
228.1197482130599
 21
-124.2437809459171
 31
0.0
  0
LINE
  5
4D7
102
{ACAD_REACTORS
330
530
330
530
102
}
330
3E
100
AcDbEntity
  8
0
  6
Continuous
 62
     4
100
AcDbLine
 10
228.1197482130599
 20
-124.2437809459171
 30
0.0
 11
228.71777021306
 21
-124.2437809459171
 31
0.0
  0
LINE
  5
4D8
102
{ACAD_REACTORS
330
530
330
530
102
}
330
3E
100
AcDbEntity
  8
0
  6
Continuous
 62
     4
100
AcDbLine
 10
228.71777021306
 20
-124.2437809459171
 30
0.0
 11
228.71777021306
 21
-135.4443889459172
 31
0.0
  0
LINE
  5
4D9
102
{ACAD_REACTORS
330
530
330
530
102
}
330
3E
100
AcDbEntity
  8
0
  6
Continuous
 62
     4
100
AcDbLine
 10
228.71777021306
 20
-135.4443889459172
 30
0.0
 11
232.4207352130599
 21
-135.4443889459172
 31
0.0
  0
LINE
  5
4DA
102
{ACAD_REACTORS
330
530
330
530
102
}
330
3E
100
AcDbEntity
  8
0
  6
Continuous
 62
     4
100
AcDbLine
 10
232.4207352130599
 20
-135.4443889459172
 30
0.0
 11
232.4207352130599
 21
-124.2437809459171
 31
0.0
  0
LINE
  5
4DB
102
{ACAD_REACTORS
330
530
330
530
102
}
330
3E
100
AcDbEntity
  8
0
  6
Continuous
 62
     4
100
AcDbLine
 10
232.4207352130599
 20
-124.2437809459171
 30
0.0
 11
233.01875821306
 21
-124.2437809459171
 31
0.0
  0
LINE
  5
4DC
102
{ACAD_REACTORS
330
530
330
530
102
}
330
3E
100
AcDbEntity
  8
0
  6
Continuous
 62
     4
100
AcDbLine
 10
233.01875821306
 20
-124.2437809459171
 30
0.0
 11
233.01875821306
 21
-135.4443889459172
 31
0.0
  0
LINE
  5
4DD
102
{ACAD_REACTORS
330
530
330
530
102
}
330
3E
100
AcDbEntity
  8
0
  6
Continuous
 62
     4
100
AcDbLine
 10
233.01875821306
 20
-135.4443889459172
 30
0.0
 11
236.7220042130599
 21
-135.4443889459172
 31
0.0
  0
LINE
  5
4DE
102
{ACAD_REACTORS
330
530
330
530
102
}
330
3E
100
AcDbEntity
  8
0
  6
Continuous
 62
     4
100
AcDbLine
 10
236.7220042130599
 20
-135.4443889459172
 30
0.0
 11
236.7220042130599
 21
-124.2437809459171
 31
0.0
  0
LINE
  5
4DF
102
{ACAD_REACTORS
330
530
330
530
102
}
330
3E
100
AcDbEntity
  8
0
  6
Continuous
 62
     4
100
AcDbLine
 10
236.7220042130599
 20
-124.2437809459171
 30
0.0
 11
237.3200272130599
 21
-124.2437809459171
 31
0.0
  0
LINE
  5
4E0
102
{ACAD_REACTORS
330
530
330
530
102
}
330
3E
100
AcDbEntity
  8
0
  6
Continuous
 62
     4
100
AcDbLine
 10
237.3200272130599
 20
-124.2437809459171
 30
0.0
 11
237.3200272130599
 21
-137.8072349459172
 31
0.0
  0
LINE
  5
4E1
102
{ACAD_REACTORS
330
530
330
530
102
}
330
3E
100
AcDbEntity
  8
0
  6
Continuous
 62
     4
100
AcDbLine
 10
237.3200272130599
 20
-137.8072349459172
 30
0.0
 11
228.1197482130599
 21
-137.8072349459172
 31
0.0
  0
LINE
  5
4E2
330
3E
100
AcDbEntity
  8
1
  6
DASH_CENTER
 62
     3
100
AcDbLine
 10
15.6197552269492
 20
-216.4316749459171
 30
0.0
 11
15.6197552269492
 21
-155.4316749459171
 31
0.0
  0
LINE
  5
4E3
330
3E
100
AcDbEntity
  8
1
  6
DASH_CENTER
 62
     3
100
AcDbLine
 10
15.6197552269492
 20
-155.4316749459171
 30
0.0
 11
15.6197552269492
 21
-94.43167494591715
 31
0.0
  0
LINE
  5
4E4
330
3E
100
AcDbEntity
  8
1
  6
DASH_CENTER
 62
     3
100
AcDbLine
 10
15.6197552269492
 20
-155.4316749459171
 30
0.0
 11
-44.3802447730508
 21
-155.4316749459171
 31
0.0
  0
LINE
  5
4E5
330
3E
100
AcDbEntity
  8
1
  6
DASH_CENTER
 62
     3
100
AcDbLine
 10
15.6197552269492
 20
-155.4316749459171
 30
0.0
 11
62.3991512619011
 21
-155.4316749459171
 31
0.0
  0
LINE
  5
4E6
330
3E
100
AcDbEntity
  8
1
  6
DASH_CENTER
 62
     3
100
AcDbLine
 10
263.1197552269492
 20
-178.6816749459172
 30
0.0
 11
263.1197552269492
 21
-180.4316749459172
 31
0.0
  0
LINE
  5
4E7
330
3E
100
AcDbEntity
  8
1
  6
DASH_CENTER
 62
     3
100
AcDbLine
 10
263.1197552269492
 20
-168.1816749459172
 30
0.0
 11
263.1197552269492
 21
-173.4316749459172
 31
0.0
  0
LINE
  5
4E8
330
3E
100
AcDbEntity
  8
1
  6
DASH_CENTER
 62
     3
100
AcDbLine
 10
263.1197552269492
 20
-173.4316749459172
 30
0.0
 11
256.1197552269492
 21
-173.4316749459172
 31
0.0
  0
LINE
  5
4E9
330
3E
100
AcDbEntity
  8
1
  6
DASH_CENTER
 62
     3
100
AcDbLine
 10
263.1197552269492
 20
-173.4316749459172
 30
0.0
 11
263.1197552269492
 21
-178.6816749459172
 31
0.0
  0
LINE
  5
4EA
330
3E
100
AcDbEntity
  8
1
  6
DASH_CENTER
 62
     3
100
AcDbLine
 10
263.1197552269492
 20
-173.4316749459172
 30
0.0
 11
270.1197552269492
 21
-173.4316749459172
 31
0.0
  0
LINE
  5
4EB
330
3E
100
AcDbEntity
  8
1
  6
DASH_CENTER
 62
     3
100
AcDbLine
 10
263.1197552269492
 20
-166.4316749459172
 30
0.0
 11
263.1197552269492
 21
-168.1816749459172
 31
0.0
  0
LINE
  5
4EC
330
3E
100
AcDbEntity
  8
0
  6
Continuous
 62
     4
100
AcDbLine
 10
305.6197552269489
 20
-201.9316749459171
 30
0.0
 11
305.6197552269489
 21
-108.9316749459171
 31
0.0
  0
LINE
  5
4ED
330
3E
100
AcDbEntity
  8
0
  6
Continuous
 62
     4
100
AcDbLine
 10
50.6197552269492
 20
-207.9316749459171
 30
0.0
 11
305.6197552269489
 21
-207.9316749459171
 31
0.0
  0
LINE
  5
4EE
330
3E
100
AcDbEntity
  8
0
  6
Continuous
 62
     4
100
AcDbLine
 10
-30.3802447730508
 20
-207.9316749459171
 30
0.0
 11
48.71975522694888
 21
-207.9316749459171
 31
0.0
  0
LINE
  5
4EF
330
3E
100
AcDbEntity
  8
0
  6
Continuous
 62
     4
100
AcDbLine
 10
48.71975522694922
 20
-201.9316749459171
 30
0.0
 11
48.71975522694888
 21
-207.9316749459171
 31
0.0
  0
LINE
  5
4F0
330
3E
100
AcDbEntity
  8
0
  6
Continuous
 62
     4
100
AcDbLine
 10
50.6197552269492
 20
-207.9316749459171
 30
0.0
 11
50.6197552269492
 21
-201.9316749459171
 31
0.0
  0
LINE
  5
4F1
330
3E
100
AcDbEntity
  8
0
  6
Continuous
 62
     4
100
AcDbLine
 10
48.71975522694922
 20
-191.2316749459172
 30
0.0
 11
48.71975522694922
 21
-201.9316749459171
 31
0.0
  0
LINE
  5
4F2
330
3E
100
AcDbEntity
  8
0
  6
Continuous
 62
     7
100
AcDbLine
 10
48.71975522694922
 20
-190.9316749459171
 30
0.0
 11
50.6197552269492
 21
-190.9316749459171
 31
0.0
  0
LINE
  5
4F3
330
3E
100
AcDbEntity
  8
0
  6
Continuous
 62
     4
100
AcDbLine
 10
48.71975522694922
 20
-191.2316749459172
 30
0.0
 11
48.71975522694922
 21
-190.9316749459171
 31
0.0
  0
LINE
  5
4F4
330
3E
100
AcDbEntity
  8
0
  6
Continuous
 62
     4
100
AcDbLine
 10
50.6197552269492
 20
-190.9316749459171
 30
0.0
 11
50.6197552269492
 21
-201.9316749459171
 31
0.0
  0
LINE
  5
4F5
330
3E
100
AcDbEntity
  8
0
  6
Continuous
 62
     4
100
AcDbLine
 10
305.6197552269489
 20
-108.9316749459171
 30
0.0
 11
265.6197552269492
 21
-108.9316749459171
 31
0.0
  0
LINE
  5
4F6
330
3E
100
AcDbEntity
  8
0
  6
Continuous
 62
     4
100
AcDbLine
 10
250.9365348890562
 20
-174.9116319200457
 30
0.0
 11
256.0365348890561
 21
-174.9116319200457
 31
0.0
  0
LINE
  5
4F7
330
3E
100
AcDbEntity
  8
0
  6
Continuous
 62
     4
100
AcDbLine
 10
250.9365348890562
 20
-171.5395944475966
 30
0.0
 11
250.9365348890562
 21
-174.9116319200457
 31
0.0
  0
LINE
  5
4F8
330
3E
100
AcDbEntity
  8
0
  6
Continuous
 62
     4
100
AcDbLine
 10
251.136534889056
 20
-171.5395944475966
 30
0.0
 11
250.9365348890562
 21
-171.5395944475966
 31
0.0
  0
LINE
  5
4F9
330
3E
100
AcDbEntity
  8
0
  6
Continuous
 62
     4
100
AcDbLine
 10
251.136534889056
 20
-174.7116319200457
 30
0.0
 11
251.136534889056
 21
-171.5395944475966
 31
0.0
  0
LINE
  5
4FA
330
3E
100
AcDbEntity
  8
0
  6
Continuous
 62
     4
100
AcDbLine
 10
253.4365348890562
 20
-174.7116319200457
 30
0.0
 11
251.136534889056
 21
-174.7116319200457
 31
0.0
  0
LINE
  5
4FB
330
3E
100
AcDbEntity
  8
0
  6
Continuous
 62
     4
100
AcDbLine
 10
253.4365348890562
 20
-172.6010304773789
 30
0.0
 11
253.4365348890562
 21
-174.7116319200457
 31
0.0
  0
LINE
  5
4FC
330
3E
100
AcDbEntity
  8
0
  6
Continuous
 62
     4
100
AcDbLine
 10
253.636534889056
 20
-172.6010304773789
 30
0.0
 11
253.4365348890562
 21
-172.6010304773789
 31
0.0
  0
LINE
  5
4FD
330
3E
100
AcDbEntity
  8
0
  6
Continuous
 62
     4
100
AcDbLine
 10
253.636534889056
 20
-174.7116319200457
 30
0.0
 11
253.636534889056
 21
-172.6010304773789
 31
0.0
  0
LINE
  5
4FE
330
3E
100
AcDbEntity
  8
0
  6
Continuous
 62
     4
100
AcDbLine
 10
256.0365348890561
 20
-174.7116319200457
 30
0.0
 11
253.636534889056
 21
-174.7116319200457
 31
0.0
  0
LINE
  5
4FF
330
3E
100
AcDbEntity
  8
0
  6
Continuous
 62
     3
100
AcDbLine
 10
256.0365348890561
 20
-174.9116319200457
 30
0.0
 11
256.0365348890561
 21
-174.7116319200457
 31
0.0
  0
LINE
  5
500
330
3E
100
AcDbEntity
  8
0
  6
Continuous
 62
     4
100
AcDbLine
 10
50.6197552269492
 20
-190.9316749459171
 30
0.0
 11
50.6197552269492
 21
-190.6316749459172
 31
0.0
  0
LINE
  5
501
330
3E
100
AcDbEntity
  8
0
  6
Continuous
 62
     4
100
AcDbLine
 10
311.6197552269492
 20
-201.9316749459172
 30
0.0
 11
311.6197552269489
 21
-108.9316749459171
 31
0.0
  0
LINE
  5
502
330
3E
100
AcDbEntity
  8
0
  6
Continuous
 62
     4
100
AcDbLine
 10
50.6197552269492
 20
-201.9316749459171
 30
0.0
 11
305.6197552269489
 21
-201.9316749459171
 31
0.0
  0
LINE
  5
503
330
3E
100
AcDbEntity
  8
0
  6
Continuous
 62
     4
100
AcDbLine
 10
48.71975522694922
 20
-201.9316749459171
 30
0.0
 11
-36.3802447730508
 21
-201.9316749459171
 31
0.0
  0
LINE
  5
504
330
3E
100
AcDbEntity
  8
0
  6
Continuous
 62
     4
100
AcDbLine
 10
-36.3802447730508
 20
-190.6316749459171
 30
0.0
 11
-36.3802447730508
 21
-190.9316749459171
 31
0.0
  0
LINE
  5
505
330
3E
100
AcDbEntity
  8
0
  6
Continuous
 62
     7
100
AcDbLine
 10
-36.3802447730508
 20
-190.9316749459171
 30
0.0
 11
48.71975522694922
 21
-190.9316749459171
 31
0.0
  0
LINE
  5
506
330
3E
100
AcDbEntity
  8
0
  6
Continuous
 62
     4
100
AcDbLine
 10
15.6197552269492
 20
-125.4316749459171
 30
0.0
 11
-36.3802447730508
 21
-125.4316749459171
 31
0.0
  0
LINE
  5
507
330
3E
100
AcDbEntity
  8
0
  6
Continuous
 62
     7
100
AcDbLine
 10
-36.3802447730508
 20
-119.9316749459171
 30
0.0
 11
47.43777035735034
 21
-119.9316749459171
 31
0.0
  0
LINE
  5
508
330
3E
100
AcDbEntity
  8
0
  6
Continuous
 62
     7
100
AcDbLine
 10
-36.3802447730508
 20
-120.2316749459171
 30
0.0
 11
47.32857943559101
 21
-120.2316749459171
 31
0.0
  0
LINE
  5
509
330
3E
100
AcDbEntity
  8
0
  6
Continuous
 62
     4
100
AcDbLine
 10
-36.3802447730508
 20
-119.9316749459171
 30
0.0
 11
-36.3802447730508
 21
-120.2316749459171
 31
0.0
  0
LINE
  5
50A
330
3E
100
AcDbEntity
  8
0
  6
Continuous
 62
     4
100
AcDbLine
 10
-36.3802447730508
 20
-190.9316749459171
 30
0.0
 11
-36.3802447730508
 21
-191.2316749459172
 31
0.0
  0
LINE
  5
50B
330
3E
100
AcDbEntity
  8
0
  6
Continuous
 62
     7
100
AcDbLine
 10
-36.3802447730508
 20
-191.2316749459172
 30
0.0
 11
48.71975522694922
 21
-191.2316749459172
 31
0.0
  0
LINE
  5
50C
330
3E
100
AcDbEntity
  8
0
  6
Continuous
 62
     7
100
AcDbLine
 10
50.6197552269492
 20
-190.6316749459172
 30
0.0
 11
-36.3802447730508
 21
-190.6316749459171
 31
0.0
  0
LINE
  5
50D
330
3E
100
AcDbEntity
  8
0
  6
Continuous
 62
     4
100
AcDbLine
 10
-36.3802447730508
 20
-201.9316749459171
 30
0.0
 11
-36.3802447730508
 21
-191.2316749459172
 31
0.0
  0
LINE
  5
50E
330
3E
100
AcDbEntity
  8
0
  6
Continuous
 62
     4
100
AcDbLine
 10
15.6197552269492
 20
-185.4316749459171
 30
0.0
 11
-36.3802447730508
 21
-185.4316749459171
 31
0.0
  0
LINE
  5
50F
330
3E
100
AcDbEntity
  8
0
  6
Continuous
 62
     4
100
AcDbLine
 10
-36.3802447730508
 20
-133.1316749459171
 30
0.0
 11
-36.3802447730508
 21
-126.4316749459171
 31
0.0
  0
LINE
  5
510
330
3E
100
AcDbEntity
  8
0
  6
Continuous
 62
     4
100
AcDbLine
 10
2.40778003287685
 20
-133.1316749459171
 30
0.0
 11
-36.3802447730508
 21
-133.1316749459171
 31
0.0
  0
LINE
  5
511
330
3E
100
AcDbEntity
  8
0
  6
Continuous
 62
     4
100
AcDbLine
 10
2.40776524296264
 20
-177.7316749459172
 30
0.0
 11
-36.3802447730508
 21
-177.7316749459172
 31
0.0
  0
LINE
  5
512
330
3E
100
AcDbEntity
  8
0
  6
Continuous
 62
     4
100
AcDbLine
 10
-36.3802447730508
 20
-177.7316749459172
 30
0.0
 11
-36.3802447730508
 21
-184.4316749459171
 31
0.0
  0
LINE
  5
513
330
3E
100
AcDbEntity
  8
0
  6
Continuous
 62
     4
100
AcDbLine
 10
-36.3802447730508
 20
-185.4316749459171
 30
0.0
 11
-36.3802447730508
 21
-184.4316749459171
 31
0.0
  0
LINE
  5
514
330
3E
100
AcDbEntity
  8
0
  6
Continuous
 62
     4
100
AcDbLine
 10
-36.3802447730508
 20
-126.4316749459171
 30
0.0
 11
-36.3802447730508
 21
-125.4316749459171
 31
0.0
  0
LINE
  5
515
330
3E
100
AcDbEntity
  8
0
  6
Continuous
 62
     4
100
AcDbLine
 10
-36.3802447730508
 20
-190.6316749459171
 30
0.0
 11
-36.3802447730508
 21
-185.4316749459171
 31
0.0
  0
LINE
  5
516
330
3E
100
AcDbEntity
  8
0
  6
Continuous
 62
     4
100
AcDbLine
 10
-36.3802447730508
 20
-125.4316749459171
 30
0.0
 11
-36.3802447730508
 21
-120.2316749459171
 31
0.0
  0
LINE
  5
517
330
3E
100
AcDbEntity
  8
0
  6
Continuous
 62
     4
100
AcDbLine
 10
265.6197552269492
 20
-102.9316749459171
 30
0.0
 11
305.6197552269489
 21
-102.9316749459171
 31
0.0
  0
LINE
  5
518
330
3E
100
AcDbEntity
  8
1
  6
Continuous
 62
     1
100
AcDbLine
 10
2.40776524296264
 20
-177.7316617087624
 30
0.0
 11
2.40776524296264
 21
-177.7316749459172
 31
0.0
  0
LINE
  5
519
330
3E
100
AcDbEntity
  8
1
  6
Continuous
 62
     3
100
AcDbLine
 10
-36.38024477305081
 20
-136.4316749459171
 30
0.0
 11
-36.38024477305081
 21
-174.4316749459171
 31
0.0
  0
LINE
  5
51A
330
3E
100
AcDbEntity
  8
1
  6
Continuous
 62
     3
100
AcDbLine
 10
-19.3802447730508
 20
-177.4316749459171
 30
0.0
 11
1.91405973346779
 21
-177.4316749459171
 31
0.0
  0
LINE
  5
51B
330
3E
100
AcDbEntity
  8
1
  6
Continuous
 62
     3
100
AcDbLine
 10
-33.38024477305081
 20
-133.4316749459171
 30
0.0
 11
-19.3802447730508
 21
-133.4316749459171
 31
0.0
  0
LINE
  5
51C
330
3E
100
AcDbEntity
  8
1
  6
Continuous
 62
     3
100
AcDbLine
 10
-19.3802447730508
 20
-177.4316749459171
 30
0.0
 11
-33.38024477305081
 21
-177.4316749459171
 31
0.0
  0
LINE
  5
51D
330
3E
100
AcDbEntity
  8
1
  6
Continuous
 62
     3
100
AcDbLine
 10
1.91405973346779
 20
-133.4316749459171
 30
0.0
 11
-19.3802447730508
 21
-133.4316749459171
 31
0.0
  0
ARC
  5
51E
330
3E
100
AcDbEntity
  8
0
  6
Continuous
 62
     4
100
AcDbCircle
 10
-30.3802447730508
 20
-108.9316749459172
 30
0.0
 40
6.0
100
AcDbArc
 50
90.0
 51
180.0
  0
ARC
  5
51F
330
3E
100
AcDbEntity
  8
0
  6
Continuous
 62
     4
100
AcDbCircle
 10
263.1197552269492
 20
-173.4316749459172
 30
0.0
 40
5.25
100
AcDbArc
 50
180.0
 51
-90.0
  0
ARC
  5
520
330
3E
100
AcDbEntity
  8
0
  6
Continuous
 62
     4
100
AcDbCircle
 10
263.1197552269492
 20
-173.4316749459172
 30
0.0
 40
5.25
100
AcDbArc
 50
90.0
 51
180.0
  0
ARC
  5
521
330
3E
100
AcDbEntity
  8
0
  6
Continuous
 62
     4
100
AcDbCircle
 10
263.1197552269492
 20
-173.4316749459172
 30
0.0
 40
5.25
100
AcDbArc
 50
-90.0
 51
90.0
  0
ARC
  5
522
330
3E
100
AcDbEntity
  8
0
  6
Continuous
 62
     4
100
AcDbCircle
 10
-30.3802447730508
 20
-201.9316749459171
 30
0.0
 40
5.999999999999996
100
AcDbArc
 50
180.0
 51
-90.0
  0
ARC
  5
523
330
3E
100
AcDbEntity
  8
0
  6
Continuous
 62
     4
100
AcDbCircle
 10
305.6197552269489
 20
-201.9316749459171
 30
0.0
 40
6.0
100
AcDbArc
 50
-90.0
 51
-0.00000000000081
  0
ARC
  5
524
330
3E
100
AcDbEntity
  8
0
  6
Continuous
 62
     4
100
AcDbCircle
 10
305.6197552269489
 20
-108.9316749459171
 30
0.0
 40
6.0
100
AcDbArc
 50
0.0
 51
90.0
  0
ARC
  5
525
330
3E
100
AcDbEntity
  8
0
  6
Continuous
 62
     4
100
AcDbCircle
 10
15.6197552269492
 20
-155.4316749459171
 30
0.0
 40
30.0
100
AcDbArc
 50
59.76869098551681
 51
90.0
  0
ARC
  5
526
330
3E
100
AcDbEntity
  8
0
  6
Continuous
 62
     4
100
AcDbCircle
 10
15.6197552269492
 20
-155.4316749459171
 30
0.0
 40
30.0
100
AcDbArc
 50
-90.0
 51
-40.76870004497739
  0
ARC
  5
527
330
3E
100
AcDbEntity
  8
0
  6
Continuous
 62
     4
100
AcDbCircle
 10
86.6197552269492
 20
-124.4316749459171
 30
0.0
 40
5.250000000000005
100
AcDbArc
 50
-72.81227241957896
 51
34.81249024968924
  0
CIRCLE
  5
528
330
3E
100
AcDbEntity
  8
0
  6
Continuous
 62
     4
100
AcDbCircle
 10
86.6197552269492
 20
-186.4316749459171
 30
0.0
 40
5.25
  0
CIRCLE
  5
529
330
3E
100
AcDbEntity
  8
0
  6
Continuous
 62
     4
100
AcDbCircle
 10
262.6197552269492
 20
-124.4316749459172
 30
0.0
 40
5.25
  0
CIRCLE
  5
52A
330
3E
100
AcDbEntity
  8
0
  6
Continuous
 62
     4
100
AcDbCircle
 10
262.6197552269492
 20
-186.4316749459172
 30
0.0
 40
5.25
  0
ARC
  5
52B
330
3E
100
AcDbEntity
  8
1
  6
Continuous
 62
     3
100
AcDbCircle
 10
-33.38024477305081
 20
-136.4316749459171
 30
0.0
 40
3.0
100
AcDbArc
 50
90.0
 51
180.0
  0
ARC
  5
52C
330
3E
100
AcDbEntity
  8
1
  6
Continuous
 62
     3
100
AcDbCircle
 10
-33.38024477305081
 20
-174.4316749459171
 30
0.0
 40
3.0
100
AcDbArc
 50
180.0
 51
-90.0
  0
HATCH
  5
52D
330
3E
100
AcDbEntity
  8
1
  6
Continuous
 62
     3
100
AcDbHatch
 10
0.0
 20
0.0
 30
0.0
210
0.0
220
0.0
230
1.0
  2
_USER
 70
     0
 71
     1
 91
        1
 92
        1
 93
       54
 72
     1
 10
236.7220042130599
 20
-184.2568909459172
 11
236.7220042130599
 21
-175.4191429459172
 72
     1
 10
236.7220042130599
 20
-175.4191429459172
 11
233.01875821306
 21
-175.4191429459172
 72
     1
 10
233.01875821306
 20
-175.4191429459172
 11
233.01875821306
 21
-179.1818759459171
 72
     1
 10
233.01875821306
 20
-179.1818759459171
 11
232.4207352130599
 21
-179.1818759459171
 72
     1
 10
232.4207352130599
 20
-179.1818759459171
 11
232.4207352130599
 21
-173.0562889459171
 72
     1
 10
232.4207352130599
 20
-173.0562889459171
 11
235.8631542130599
 21
-173.0562889459171
 72
     1
 10
235.8631542130599
 20
-173.0562889459171
 11
236.09373121306
 21
-173.2597149459171
 72
     1
 10
236.09373121306
 20
-173.2597149459171
 11
236.34043721306
 21
-173.5157959459171
 72
     1
 10
236.34043721306
 20
-173.5157959459171
 11
236.5627382130599
 21
-173.7913539459172
 72
     1
 10
236.5627382130599
 20
-173.7913539459172
 11
236.7589452130598
 21
-174.0842999459172
 72
     1
 10
236.7589452130598
 20
-174.0842999459172
 11
236.9275622130599
 21
-174.3923869459171
 72
     1
 10
236.9275622130599
 20
-174.3923869459171
 11
237.0673072130599
 21
-174.7132829459171
 72
     1
 10
237.0673072130599
 20
-174.7132829459171
 11
237.17711521306
 21
-175.0445469459172
 72
     1
 10
237.17711521306
 20
-175.0445469459172
 11
237.2561532130598
 21
-175.3836509459171
 72
     1
 10
237.2561532130598
 20
-175.3836509459171
 11
237.3038182130599
 21
-175.7280149459171
 72
     1
 10
237.3038182130599
 20
-175.7280149459171
 11
237.3200272130599
 21
-176.0750229459171
 72
     1
 10
237.3200272130599
 20
-176.0750229459171
 11
237.3200272130599
 21
-183.6010159459172
 72
     1
 10
237.3200272130599
 20
-183.6010159459172
 11
237.3082122130599
 21
-183.8999609459172
 72
     1
 10
237.3082122130599
 20
-183.8999609459172
 11
237.2649352130599
 21
-184.2448719459172
 72
     1
 10
237.2649352130599
 20
-184.2448719459172
 11
237.19021821306
 21
-184.584881945917
 72
     1
 10
237.19021821306
 20
-184.584881945917
 11
237.0846292130599
 21
-184.9174089459171
 72
     1
 10
237.0846292130599
 20
-184.9174089459171
 11
236.9489742130599
 21
-185.2399109459171
 72
     1
 10
236.9489742130599
 20
-185.2399109459171
 11
236.78428321306
 21
-185.5499449459171
 72
     1
 10
236.78428321306
 20
-185.5499449459171
 11
236.5918102130599
 21
-185.8451459459171
 72
     1
 10
236.5918102130599
 20
-185.8451459459171
 11
236.3730202130599
 21
-186.1232659459171
 72
     1
 10
236.3730202130599
 20
-186.1232659459171
 11
236.1295782130598
 21
-186.3821909459171
 72
     1
 10
236.1295782130598
 20
-186.3821909459171
 11
235.8631542130599
 21
-186.6197489459172
 72
     1
 10
235.8631542130599
 20
-186.6197489459172
 11
229.57661921306
 21
-186.6197489459172
 72
     1
 10
229.57661921306
 20
-186.6197489459172
 11
229.3460432130599
 21
-186.4163229459171
 72
     1
 10
229.3460432130599
 20
-186.4163229459171
 11
229.0993392130599
 21
-186.160239945917
 72
     1
 10
229.0993392130599
 20
-186.160239945917
 11
228.8770362130599
 21
-185.8846799459171
 72
     1
 10
228.8770362130599
 20
-185.8846799459171
 11
228.6808292130599
 21
-185.5917389459172
 72
     1
 10
228.6808292130599
 20
-185.5917389459172
 11
228.51221421306
 21
-185.2836489459172
 72
     1
 10
228.51221421306
 20
-185.2836489459172
 11
228.3724682130599
 21
-184.9627509459172
 72
     1
 10
228.3724682130599
 20
-184.9627509459172
 11
228.2626602130599
 21
-184.6314919459171
 72
     1
 10
228.2626602130599
 20
-184.6314919459171
 11
228.1836212130599
 21
-184.2923879459172
 72
     1
 10
228.1836212130599
 20
-184.2923879459172
 11
228.13595721306
 21
-183.9480239459171
 72
     1
 10
228.13595721306
 20
-183.9480239459171
 11
228.1197482130599
 21
-183.6010159459172
 72
     1
 10
228.1197482130599
 20
-183.6010159459172
 11
228.1197482130599
 21
-176.0750229459171
 72
     1
 10
228.1197482130599
 20
-176.0750229459171
 11
228.1315662130599
 21
-175.7760769459172
 72
     1
 10
228.1315662130599
 20
-175.7760769459172
 11
228.1748402130599
 21
-175.4311669459172
 72
     1
 10
228.1748402130599
 20
-175.4311669459172
 11
228.2495582130599
 21
-175.0911509459172
 72
     1
 10
228.2495582130599
 20
-175.0911509459172
 11
228.3551452130599
 21
-174.7586319459171
 72
     1
 10
228.3551452130599
 20
-174.7586319459171
 11
228.4908002130599
 21
-174.4361219459172
 72
     1
 10
228.4908002130599
 20
-174.4361219459172
 11
228.6554922130599
 21
-174.1260899459172
 72
     1
 10
228.6554922130599
 20
-174.1260899459172
 11
228.8479642130598
 21
-173.8308899459172
 72
     1
 10
228.8479642130598
 20
-173.8308899459172
 11
229.06675421306
 21
-173.5527679459172
 72
     1
 10
229.06675421306
 20
-173.5527679459172
 11
229.3101972130599
 21
-173.2938449459171
 72
     1
 10
229.3101972130599
 20
-173.2938449459171
 11
229.57661921306
 21
-173.0562889459171
 72
     1
 10
229.57661921306
 20
-173.0562889459171
 11
229.8677702130599
 21
-173.0562889459171
 72
     1
 10
229.8677702130599
 20
-173.0562889459171
 11
229.8677702130599
 21
-175.4191429459172
 72
     1
 10
229.8677702130599
 20
-175.4191429459172
 11
228.71777021306
 21
-175.4191429459172
 72
     1
 10
228.71777021306
 20
-175.4191429459172
 11
228.71777021306
 21
-184.2568909459172
 72
     1
 10
228.71777021306
 20
-184.2568909459172
 11
236.7220042130599
 21
-184.2568909459172
 97
       54
330
49A
330
49B
330
49C
330
49D
330
49E
330
49F
330
4A9
330
4A8
330
4A7
330
4A6
330
4A5
330
4A4
330
4A3
330
4A2
330
4A1
330
4A0
330
4AA
330
4B4
330
4B3
330
4B2
330
4B1
330
4B0
330
4AF
330
4AE
330
4AD
330
4AC
330
4AB
330
4B5
330
4BF
330
4BE
330
4BD
330
4BC
330
4BB
330
4BA
330
4B9
330
4B8
330
4B7
330
4B6
330
48A
330
494
330
493
330
492
330
491
330
490
330
48F
330
48E
330
48D
330
48C
330
48B
330
495
330
496
330
497
330
498
330
499
 75
     1
 76
     0
 52
45.0
 41
0.1
 77
     0
 78
     1
 53
45.0
 43
0.0
 44
0.0
 45
-0.0707106781186548
 46
0.0707106781186548
 79
     0
 98
        1
 10
0.0
 20
0.0
  0
HATCH
  5
52E
330
3E
100
AcDbEntity
  8
1
  6
Continuous
 62
     3
100
AcDbHatch
 10
0.0
 20
0.0
 30
0.0
210
0.0
220
0.0
230
1.0
  2
_USER
 70
     0
 71
     1
 91
        1
 92
        1
 93
       12
 72
     1
 10
232.4207352130599
 20
-167.3325489459172
 11
232.4207352130599
 21
-156.1319419459172
 72
     1
 10
232.4207352130599
 20
-156.1319419459172
 11
233.01875821306
 21
-156.1319419459172
 72
     1
 10
233.01875821306
 20
-156.1319419459172
 11
233.01875821306
 21
-167.3325489459172
 72
     1
 10
233.01875821306
 20
-167.3325489459172
 11
236.7220042130599
 21
-167.3325489459172
 72
     1
 10
236.7220042130599
 20
-167.3325489459172
 11
236.7220042130599
 21
-156.1319419459172
 72
     1
 10
236.7220042130599
 20
-156.1319419459172
 11
237.3200272130599
 21
-156.1319419459172
 72
     1
 10
237.3200272130599
 20
-156.1319419459172
 11
237.3200272130599
 21
-169.6954069459171
 72
     1
 10
237.3200272130599
 20
-169.6954069459171
 11
228.1197482130599
 21
-169.6954069459171
 72
     1
 10
228.1197482130599
 20
-169.6954069459171
 11
228.1197482130599
 21
-156.1319419459172
 72
     1
 10
228.1197482130599
 20
-156.1319419459172
 11
228.71777021306
 21
-156.1319419459172
 72
     1
 10
228.71777021306
 20
-156.1319419459172
 11
228.71777021306
 21
-167.3325489459172
 72
     1
 10
228.71777021306
 20
-167.3325489459172
 11
232.4207352130599
 21
-167.3325489459172
 97
       12
330
4C4
330
4C5
330
4C6
330
4C7
330
4C8
330
4C9
330
4CA
330
4CB
330
4C0
330
4C1
330
4C2
330
4C3
 75
     1
 76
     0
 52
45.0
 41
0.1
 77
     0
 78
     1
 53
45.0
 43
0.0
 44
0.0
 45
-0.0707106781186548
 46
0.0707106781186548
 79
     0
 98
        1
 10
0.0
 20
0.0
  0
HATCH
  5
52F
330
3E
100
AcDbEntity
  8
1
  6
Continuous
 62
     3
100
AcDbHatch
 10
0.0
 20
0.0
 30
0.0
210
0.0
220
0.0
230
1.0
  2
_USER
 70
     0
 71
     1
 91
        1
 92
        1
 93
       10
 72
     1
 10
236.7220042130599
 20
-152.4016489459171
 11
236.7220042130599
 21
-140.1878579459172
 72
     1
 10
236.7220042130599
 20
-140.1878579459172
 11
237.3200272130599
 21
-140.1878579459172
 72
     1
 10
237.3200272130599
 20
-140.1878579459172
 11
237.3200272130599
 21
-153.7513189459172
 72
     1
 10
237.3200272130599
 20
-153.7513189459172
 11
236.4227122130598
 21
-153.7513189459172
 72
     1
 10
236.4227122130598
 20
-153.7513189459172
 11
228.71777021306
 21
-141.5375209459172
 72
     1
 10
228.71777021306
 20
-141.5375209459172
 11
228.71777021306
 21
-153.7513189459172
 72
     1
 10
228.71777021306
 20
-153.7513189459172
 11
228.1197482130599
 21
-153.7513189459172
 72
     1
 10
228.1197482130599
 20
-153.7513189459172
 11
228.1197482130599
 21
-140.1878579459172
 72
     1
 10
228.1197482130599
 20
-140.1878579459172
 11
229.0170622130599
 21
-140.1878579459172
 72
     1
 10
229.0170622130599
 20
-140.1878579459172
 11
236.7220042130599
 21
-152.4016489459171
 97
       10
330
4CF
330
4D0
330
4D1
330
4D2
330
4D3
330
4D4
330
4D5
330
4CC
330
4CD
330
4CE
 75
     1
 76
     0
 52
45.0
 41
0.1
 77
     0
 78
     1
 53
45.0
 43
0.0
 44
0.0
 45
-0.0707106781186548
 46
0.0707106781186548
 79
     0
 98
        1
 10
0.0
 20
0.0
  0
HATCH
  5
530
330
3E
100
AcDbEntity
  8
1
  6
Continuous
 62
     3
100
AcDbHatch
 10
0.0
 20
0.0
 30
0.0
210
0.0
220
0.0
230
1.0
  2
_USER
 70
     0
 71
     1
 91
        1
 92
        1
 93
       12
 72
     1
 10
232.4207352130599
 20
-135.4443889459172
 11
232.4207352130599
 21
-124.2437809459171
 72
     1
 10
232.4207352130599
 20
-124.2437809459171
 11
233.01875821306
 21
-124.2437809459171
 72
     1
 10
233.01875821306
 20
-124.2437809459171
 11
233.01875821306
 21
-135.4443889459172
 72
     1
 10
233.01875821306
 20
-135.4443889459172
 11
236.7220042130599
 21
-135.4443889459172
 72
     1
 10
236.7220042130599
 20
-135.4443889459172
 11
236.7220042130599
 21
-124.2437809459171
 72
     1
 10
236.7220042130599
 20
-124.2437809459171
 11
237.3200272130599
 21
-124.2437809459171
 72
     1
 10
237.3200272130599
 20
-124.2437809459171
 11
237.3200272130599
 21
-137.8072349459172
 72
     1
 10
237.3200272130599
 20
-137.8072349459172
 11
228.1197482130599
 21
-137.8072349459172
 72
     1
 10
228.1197482130599
 20
-137.8072349459172
 11
228.1197482130599
 21
-124.2437809459171
 72
     1
 10
228.1197482130599
 20
-124.2437809459171
 11
228.71777021306
 21
-124.2437809459171
 72
     1
 10
228.71777021306
 20
-124.2437809459171
 11
228.71777021306
 21
-135.4443889459172
 72
     1
 10
228.71777021306
 20
-135.4443889459172
 11
232.4207352130599
 21
-135.4443889459172
 97
       12
330
4DA
330
4DB
330
4DC
330
4DD
330
4DE
330
4DF
330
4E0
330
4E1
330
4D6
330
4D7
330
4D8
330
4D9
 75
     1
 76
     0
 52
45.0
 41
0.1
 77
     0
 78
     1
 53
45.0
 43
0.0
 44
0.0
 45
-0.0707106781186548
 46
0.0707106781186548
 79
     0
 98
        1
 10
0.0
 20
0.0
  0
HATCH
  5
531
330
3E
100
AcDbEntity
  8
1
  6
Continuous
 62
     3
100
AcDbHatch
 10
0.0
 20
0.0
 30
0.0
210
0.0
220
0.0
230
1.0
  2
_USER
 70
     0
 71
     1
 91
        2
 92
        1
 93
       45
 72
     1
 10
225.3045242130599
 20
-118.2002019459172
 11
225.1235612130599
 21
-118.4740359459172
 72
     1
 10
225.1235612130599
 20
-118.4740359459172
 11
224.9687112130599
 21
-118.761618945917
 72
     1
 10
224.9687112130599
 20
-118.761618945917
 11
224.8411612130599
 21
-119.0607829459171
 72
     1
 10
224.8411612130599
 20
-119.0607829459171
 11
224.7418682130599
 21
-119.369238945917
 72
     1
 10
224.7418682130599
 20
-119.369238945917
 11
224.6716012130599
 21
-119.6846539459171
 72
     1
 10
224.6716012130599
 20
-119.6846539459171
 11
224.6308872130599
 21
-120.0046149459171
 72
     1
 10
224.6308872130599
 20
-120.0046149459171
 11
224.6197522130599
 21
-120.2822489459171
 72
     1
 10
224.6197522130599
 20
-120.2822489459171
 11
224.6197592130598
 21
-190.5808299459171
 72
     1
 10
224.6197592130598
 20
-190.5808299459171
 11
224.63488321306
 21
-190.9027429459172
 72
     1
 10
224.63488321306
 20
-190.9027429459172
 11
224.67968821306
 21
-191.2222049459172
 72
     1
 10
224.67968821306
 20
-191.2222049459172
 11
224.7539932130598
 21
-191.5367859459171
 72
     1
 10
224.7539932130598
 20
-191.5367859459171
 11
224.8572242130599
 21
-191.8440919459171
 72
     1
 10
224.8572242130599
 20
-191.8440919459171
 11
224.9885992130599
 21
-192.1417829459172
 72
     1
 10
224.9885992130599
 20
-192.1417829459172
 11
225.1471172130599
 21
-192.4275949459171
 72
     1
 10
225.1471172130599
 20
-192.4275949459171
 11
225.33156921306
 21
-192.6993519459172
 72
     1
 10
225.33156921306
 20
-192.6993519459172
 11
225.5405552130598
 21
-192.9549849459172
 72
     1
 10
225.5405552130598
 20
-192.9549849459172
 11
225.77248321306
 21
-193.1925499459172
 72
     1
 10
225.77248321306
 20
-193.1925499459172
 11
225.8998482130599
 21
-193.3068599459171
 72
     1
 10
225.8998482130599
 20
-193.3068599459171
 11
226.1041332130598
 21
-193.3816749459172
 72
     1
 10
226.1041332130598
 20
-193.3816749459172
 11
239.2502462130599
 21
-193.3816749459172
 72
     1
 10
239.2502462130599
 20
-193.3816749459172
 11
239.5003992130599
 21
-193.1610009459171
 72
     1
 10
239.5003992130599
 20
-193.1610009459171
 11
239.72927121306
 21
-192.9208529459172
 72
     1
 10
239.72927121306
 20
-192.9208529459172
 11
239.9349732130599
 21
-192.6628959459171
 72
     1
 10
239.9349732130599
 20
-192.6628959459171
 11
240.1159402130599
 21
-192.3890929459172
 72
     1
 10
240.1159402130599
 20
-192.3890929459172
 11
240.2707932130599
 21
-192.1015289459172
 72
     1
 10
240.2707932130599
 20
-192.1015289459172
 11
240.39835421306
 21
-191.8023899459171
 72
     1
 10
240.39835421306
 20
-191.8023899459171
 11
240.4976532130599
 21
-191.4939549459171
 72
     1
 10
240.4976532130599
 20
-191.4939549459171
 11
240.5679342130599
 21
-191.1785709459171
 72
     1
 10
240.5679342130599
 20
-191.1785709459171
 11
240.6086622130599
 21
-190.8586379459171
 72
     1
 10
240.6086622130599
 20
-190.8586379459171
 11
240.6198092130599
 21
-190.5808299459171
 72
     1
 10
240.6198092130599
 20
-190.5808299459171
 11
240.6198092130599
 21
-120.2822489459171
 72
     1
 10
240.6198092130599
 20
-120.2822489459171
 11
240.6050622130599
 21
-119.960333945917
 72
     1
 10
240.6050622130599
 20
-119.960333945917
 11
240.5602522130599
 21
-119.6408609459171
 72
     1
 10
240.5602522130599
 20
-119.6408609459171
 11
240.4859472130599
 21
-119.3262549459171
 72
     1
 10
240.4859472130599
 20
-119.3262549459171
 11
240.38271321306
 21
-119.0189579459171
 72
     1
 10
240.38271321306
 20
-119.0189579459171
 11
240.25133521306
 21
-118.7212589459171
 72
     1
 10
240.25133521306
 20
-118.7212589459171
 11
240.0928142130599
 21
-118.4354319459172
 72
     1
 10
240.0928142130599
 20
-118.4354319459172
 11
239.9083562130599
 21
-118.1636729459172
 72
     1
 10
239.9083562130599
 20
-118.1636729459172
 11
239.6993642130599
 21
-117.9080269459171
 72
     1
 10
239.6993642130599
 20
-117.9080269459171
 11
239.4674302130599
 21
-117.6704479459172
 72
     1
 10
239.4674302130599
 20
-117.6704479459172
 11
239.2502462130599
 21
-117.481405945917
 72
     1
 10
239.2502462130599
 20
-117.481405945917
 11
225.9893162130599
 21
-117.481405945917
 72
     1
 10
225.9893162130599
 20
-117.481405945917
 11
225.7391002130599
 21
-117.7020489459172
 72
     1
 10
225.7391002130599
 20
-117.7020489459172
 11
225.5102282130599
 21
-117.9422219459171
 72
     1
 10
225.5102282130599
 20
-117.9422219459171
 11
225.3045242130599
 21
-118.2002019459172
 97
       45
330
461
330
460
330
46A
330
474
330
473
330
472
330
471
330
470
330
46F
330
46E
330
46D
330
46C
330
46B
330
40D
330
47E
330
47D
330
47C
330
47B
330
47A
330
479
330
478
330
477
330
476
330
475
330
47F
330
413
330
489
330
488
330
487
330
486
330
485
330
484
330
483
330
482
330
481
330
480
330
40E
330
469
330
468
330
467
330
466
330
465
330
464
330
463
330
462
 92
       16
 93
       76
 72
     1
 10
226.9682972130599
 20
-189.9806329459171
 11
238.27153621306
 21
-189.9806329459171
 72
     1
 10
238.27153621306
 20
-189.9806329459171
 11
238.3280562130599
 21
-189.9780699459171
 72
     1
 10
238.3280562130599
 20
-189.9780699459171
 11
238.3841452130599
 21
-189.9711399459171
 72
     1
 10
238.3841452130599
 20
-189.9711399459171
 11
238.4393782130598
 21
-189.9596459459172
 72
     1
 10
238.4393782130598
 20
-189.9596459459172
 11
238.4933332130599
 21
-189.9436789459172
 72
     1
 10
238.4933332130599
 20
-189.9436789459172
 11
238.5456002130599
 21
-189.9233589459171
 72
     1
 10
238.5456002130599
 20
-189.9233589459171
 11
238.5957812130599
 21
-189.8988399459171
 72
     1
 10
238.5957812130599
 20
-189.8988399459171
 11
238.6434942130599
 21
-189.8703089459171
 72
     1
 10
238.6434942130599
 20
-189.8703089459171
 11
238.68837721306
 21
-189.8379839459172
 72
     1
 10
238.68837721306
 20
-189.8379839459172
 11
238.7300882130599
 21
-189.8021099459172
 72
     1
 10
238.7300882130599
 20
-189.8021099459172
 11
238.76830821306
 21
-189.7629599459172
 72
     1
 10
238.76830821306
 20
-189.7629599459172
 11
238.80274821306
 21
-189.7208329459172
 72
     1
 10
238.80274821306
 20
-189.7208329459172
 11
238.8331452130599
 21
-189.6760489459171
 72
     1
 10
238.8331452130599
 20
-189.6760489459171
 11
238.85926821306
 21
-189.6289489459171
 72
     1
 10
238.85926821306
 20
-189.6289489459171
 11
238.88091721306
 21
-189.5798899459172
 72
     1
 10
238.88091721306
 20
-189.5798899459172
 11
238.8979292130599
 21
-189.5292479459171
 72
     1
 10
238.8979292130599
 20
-189.5292479459171
 11
238.9101742130599
 21
-189.4774079459172
 72
     1
 10
238.9101742130599
 20
-189.4774079459172
 11
238.9175592130599
 21
-189.4247619459171
 72
     1
 10
238.9175592130599
 20
-189.4247619459171
 11
238.9200262130599
 21
-189.3717119459171
 72
     1
 10
238.9200262130599
 20
-189.3717119459171
 11
238.9200262130599
 21
-121.4913699459172
 72
     1
 10
238.9200262130599
 20
-121.4913699459172
 11
238.9178212130599
 21
-121.4382999459172
 72
     1
 10
238.9178212130599
 20
-121.4382999459172
 11
238.9104342130599
 21
-121.385626945917
 72
     1
 10
238.9104342130599
 20
-121.385626945917
 11
238.8981842130599
 21
-121.333777945917
 72
     1
 10
238.8981842130599
 20
-121.333777945917
 11
238.8811652130599
 21
-121.2831179459171
 72
     1
 10
238.8811652130599
 20
-121.2831179459171
 11
238.8595072130599
 21
-121.2340459459172
 72
     1
 10
238.8595072130599
 20
-121.2340459459172
 11
238.83337321306
 21
-121.1869119459171
 72
     1
 10
238.83337321306
 20
-121.1869119459171
 11
238.80296421306
 21
-121.1420969459171
 72
     1
 10
238.80296421306
 20
-121.1420969459171
 11
238.7685102130599
 21
-121.0999519459172
 72
     1
 10
238.7685102130599
 20
-121.0999519459172
 11
238.7302742130599
 21
-121.0607979459172
 72
     1
 10
238.7302742130599
 20
-121.0607979459172
 11
238.68854721306
 21
-121.0249089459171
 72
     1
 10
238.68854721306
 20
-121.0249089459171
 11
238.6436462130599
 21
-120.9925759459171
 72
     1
 10
238.6436462130599
 20
-120.9925759459171
 11
238.5959132130599
 21
-120.9640269459172
 72
     1
 10
238.5959132130599
 20
-120.9640269459172
 11
238.5457112130599
 21
-120.9394909459171
 72
     1
 10
238.5457112130599
 20
-120.9394909459171
 11
238.4934232130599
 21
-120.9191809459171
 72
     1
 10
238.4934232130599
 20
-120.9191809459171
 11
238.4394462130599
 21
-120.9032049459172
 72
     1
 10
238.4394462130599
 20
-120.9032049459172
 11
238.3841912130599
 21
-120.8916999459171
 72
     1
 10
238.3841912130599
 20
-120.8916999459171
 11
238.3280792130599
 21
-120.8847729459171
 72
     1
 10
238.3280792130599
 20
-120.8847729459171
 11
238.27153621306
 21
-120.8824379459171
 72
     1
 10
238.27153621306
 20
-120.8824379459171
 11
226.9682892130599
 21
-120.8824379459171
 72
     1
 10
226.9682892130599
 20
-120.8824379459171
 11
226.9117712130598
 21
-120.8850169459171
 72
     1
 10
226.9117712130598
 20
-120.8850169459171
 11
226.8556832130599
 21
-120.8919439459172
 72
     1
 10
226.8556832130599
 20
-120.8919439459172
 11
226.80045021306
 21
-120.9034339459171
 72
     1
 10
226.80045021306
 20
-120.9034339459171
 11
226.7464952130599
 21
-120.9194099459172
 72
     1
 10
226.7464952130599
 20
-120.9194099459172
 11
226.6942302130599
 21
-120.9397349459171
 72
     1
 10
226.6942302130599
 20
-120.9397349459171
 11
226.6440482130599
 21
-120.9642399459172
 72
     1
 10
226.6440482130599
 20
-120.9642399459172
 11
226.59633321306
 21
-120.9927589459171
 72
     1
 10
226.59633321306
 20
-120.9927589459171
 11
226.55145021306
 21
-121.0250919459171
 72
     1
 10
226.55145021306
 20
-121.0250919459171
 11
226.5097422130599
 21
-121.0609659459172
 72
     1
 10
226.5097422130599
 20
-121.0609659459172
 11
226.4715222130598
 21
-121.1001199459171
 72
     1
 10
226.4715222130598
 20
-121.1001199459171
 11
226.4370792130598
 21
-121.1422489459172
 72
     1
 10
226.4370792130598
 20
-121.1422489459172
 11
226.4066842130598
 21
-121.1870339459171
 72
     1
 10
226.4066842130598
 20
-121.1870339459171
 11
226.38056121306
 21
-121.2341379459172
 72
     1
 10
226.38056121306
 20
-121.2341379459172
 11
226.3589122130599
 21
-121.2831949459172
 72
     1
 10
226.3589122130599
 20
-121.2831949459172
 11
226.3418992130599
 21
-121.3338389459171
 72
     1
 10
226.3418992130599
 20
-121.3338389459171
 11
226.3296552130599
 21
-121.3856729459172
 72
     1
 10
226.3296552130599
 20
-121.3856729459172
 11
226.3222702130599
 21
-121.4383309459171
 72
     1
 10
226.3222702130599
 20
-121.4383309459171
 11
226.3198002130599
 21
-121.4913699459172
 72
     1
 10
226.3198002130599
 20
-121.4913699459172
 11
226.31980621306
 21
-189.3717119459171
 72
     1
 10
226.31980621306
 20
-189.3717119459171
 11
226.3220132130599
 21
-189.424782945917
 72
     1
 10
226.3220132130599
 20
-189.424782945917
 11
226.3294022130599
 21
-189.4774499459172
 72
     1
 10
226.3294022130599
 20
-189.4774499459172
 11
226.34165121306
 21
-189.5293119459171
 72
     1
 10
226.34165121306
 20
-189.5293119459171
 11
226.3586682130599
 21
-189.5799759459172
 72
     1
 10
226.3586682130599
 20
-189.5799759459172
 11
226.38033021306
 21
-189.6290529459171
 72
     1
 10
226.38033021306
 20
-189.6290529459171
 11
226.4064612130599
 21
-189.6761729459171
 72
     1
 10
226.4064612130599
 20
-189.6761729459171
 11
226.4368692130599
 21
-189.7209749459172
 72
     1
 10
226.4368692130599
 20
-189.7209749459172
 11
226.4713262130599
 21
-189.7631189459172
 72
     1
 10
226.4713262130599
 20
-189.7631189459172
 11
226.5095622130599
 21
-189.8022849459172
 72
     1
 10
226.5095622130599
 20
-189.8022849459172
 11
226.5512892130599
 21
-189.8381739459172
 72
     1
 10
226.5512892130599
 20
-189.8381739459172
 11
226.5961862130599
 21
-189.8705119459172
 72
     1
 10
226.5961862130599
 20
-189.8705119459172
 11
226.64392221306
 21
-189.8990539459172
 72
     1
 10
226.64392221306
 20
-189.8990539459172
 11
226.6941232130599
 21
-189.9235829459172
 72
     1
 10
226.6941232130599
 20
-189.9235829459172
 11
226.7464112130599
 21
-189.9439119459172
 72
     1
 10
226.7464112130599
 20
-189.9439119459172
 11
226.8003892130599
 21
-189.9598859459172
 72
     1
 10
226.8003892130599
 20
-189.9598859459172
 11
226.8556432130599
 21
-189.9713829459171
 72
     1
 10
226.8556432130599
 20
-189.9713829459171
 11
226.9117552130599
 21
-189.9783169459171
 72
     1
 10
226.9117552130599
 20
-189.9783169459171
 11
226.9682972130599
 21
-189.9806329459171
 97
       76
330
45E
330
45D
330
45C
330
45B
330
45A
330
459
330
458
330
457
330
456
330
455
330
454
330
453
330
452
330
451
330
450
330
44F
330
44E
330
414
330
426
330
425
330
424
330
423
330
422
330
421
330
420
330
41F
330
41E
330
41D
330
41C
330
41B
330
41A
330
419
330
418
330
417
330
416
330
415
330
427
330
439
330
438
330
437
330
436
330
435
330
434
330
433
330
432
330
431
330
430
330
42F
330
42E
330
42D
330
42C
330
42B
330
42A
330
429
330
428
330
43A
330
44C
330
44B
330
44A
330
449
330
448
330
447
330
446
330
445
330
444
330
443
330
442
330
441
330
440
330
43F
330
43E
330
43D
330
43C
330
43B
330
44D
330
45F
 75
     1
 76
     0
 52
45.0
 41
0.1
 77
     0
 78
     1
 53
45.0
 43
0.0
 44
0.0
 45
-0.0707106781186548
 46
0.0707106781186548
 79
     0
 98
        1
 10
0.0
 20
0.0
  0
ENDBLK
  5
40
330
3E
100
AcDbEntity
  8
0
100
AcDbBlockEnd
  0
BLOCK
  5
38B
330
384
100
AcDbEntity
  8
0
100
AcDbBlockBegin
  2
*D5
 70
     1
 71
     0
 10
0.0
 20
0.0
 30
0.0
  3
*D5
  1

  0
LINE
  5
385
330
384
100
AcDbEntity
  8
1
  6
Continuous
 62
     3
100
AcDbLine
 10
-22.6304642911568
 20
45.3656915457383
 30
0.0
 11
-22.6304642911568
 21
64.3656915457383
 31
0.0
  0
LINE
  5
386
330
384
100
AcDbEntity
  8
1
  6
Continuous
 62
     3
100
AcDbLine
 10
-3.88237086986046
 20
64.3656915457383
 30
0.0
 11
-24.6304642911568
 21
64.3656915457383
 31
0.0
  0
LINE
  5
387
330
384
100
AcDbEntity
  8
1
  6
Continuous
 62
     3
100
AcDbLine
 10
-3.88237086987138
 20
45.3656915457383
 30
0.0
 11
-24.6304642911568
 21
45.3656915457383
 31
0.0
  0
SOLID
  5
388
330
384
100
AcDbEntity
  8
1
 62
     3
100
AcDbTrace
 10
-22.16968054960092
 20
60.8656915457383
 30
0.0
 11
-23.09124803271269
 21
60.8656915457383
 31
0.0
 12
-22.6304642911568
 22
64.3656915457383
 32
0.0
 13
-22.6304642911568
 23
64.3656915457383
 33
0.0
  0
SOLID
  5
389
330
384
100
AcDbEntity
  8
1
 62
     3
100
AcDbTrace
 10
-23.09124803271269
 20
48.8656915457383
 30
0.0
 11
-22.16968054960092
 21
48.8656915457383
 31
0.0
 12
-22.6304642911568
 22
45.3656915457383
 32
0.0
 13
-22.6304642911568
 23
45.3656915457383
 33
0.0
  0
MTEXT
  5
38A
330
384
100
AcDbEntity
  8
1
 62
     4
100
AcDbMText
 10
-24.6304642911568
 20
52.4706698655069
 30
0.0
 40
3.5
 41
0.0
 71
     7
 72
     1
  1
19
  7
CONVERTER_13
 11
0.0
 21
1.0
 31
0.0
 73
     1
 44
0.60024009603842
  0
ENDBLK
  5
38C
330
384
100
AcDbEntity
  8
0
100
AcDbBlockEnd
  0
BLOCK
  5
396
330
38F
100
AcDbEntity
  8
0
100
AcDbBlockBegin
  2
*D6
 70
     1
 71
     0
 10
0.0
 20
0.0
 30
0.0
  3
*D6
  1

  0
LINE
  5
390
330
38F
100
AcDbEntity
  8
1
  6
Continuous
 62
     3
100
AcDbLine
 10
287.389955575182
 20
49.8656915457383
 30
0.0
 11
287.389955575182
 21
59.8656915457383
 31
0.0
  0
LINE
  5
391
330
38F
100
AcDbEntity
  8
1
  6
Continuous
 62
     3
100
AcDbLine
 10
265.357716330534
 20
59.8656915457383
 30
0.0
 11
289.389955575182
 21
59.8656915457383
 31
0.0
  0
LINE
  5
392
330
38F
100
AcDbEntity
  8
1
  6
Continuous
 62
     3
100
AcDbLine
 10
265.357716330534
 20
49.8656915457383
 30
0.0
 11
289.389955575182
 21
49.8656915457383
 31
0.0
  0
SOLID
  5
393
330
38F
100
AcDbEntity
  8
1
 62
     3
100
AcDbTrace
 10
287.8507393167379
 20
56.3656915457383
 30
0.0
 11
286.9291718336261
 21
56.3656915457383
 31
0.0
 12
287.389955575182
 22
59.8656915457383
 32
0.0
 13
287.389955575182
 23
59.8656915457383
 33
0.0
  0
SOLID
  5
394
330
38F
100
AcDbEntity
  8
1
 62
     3
100
AcDbTrace
 10
286.9291718336261
 20
53.3656915457383
 30
0.0
 11
287.8507393167379
 21
53.3656915457383
 31
0.0
 12
287.389955575182
 22
49.8656915457383
 32
0.0
 13
287.389955575182
 23
49.8656915457383
 33
0.0
  0
MTEXT
  5
395
330
38F
100
AcDbEntity
  8
1
 62
     4
100
AcDbMText
 10
285.389955575182
 20
52.5412708186805
 30
0.0
 40
3.5
 41
0.0
 71
     7
 72
     1
  1
10
  7
CONVERTER_13
 11
0.0
 21
1.0
 31
0.0
 73
     1
 44
0.60024009603842
  0
ENDBLK
  5
397
330
38F
100
AcDbEntity
  8
0
100
AcDbBlockEnd
  0
BLOCK
  5
3A1
330
39A
100
AcDbEntity
  8
0
100
AcDbBlockBegin
  2
*D7
 70
     1
 71
     0
 10
0.0
 20
0.0
 30
0.0
  3
*D7
  1

  0
LINE
  5
39B
330
39A
100
AcDbEntity
  8
1
  6
Continuous
 62
     3
100
AcDbLine
 10
286.604396473846
 20
-8.1343084542617
 30
0.0
 11
286.604396473846
 21
15.86569154573831
 31
0.0
  0
LINE
  5
39C
330
39A
100
AcDbEntity
  8
1
  6
Continuous
 62
     3
100
AcDbLine
 10
261.6197552269492
 20
15.86569154573831
 30
0.0
 11
288.604396473846
 21
15.86569154573831
 31
0.0
  0
LINE
  5
39D
330
39A
100
AcDbEntity
  8
1
  6
Continuous
 62
     3
100
AcDbLine
 10
261.6197552269492
 20
-8.1343084542617
 30
0.0
 11
288.604396473846
 21
-8.1343084542617
 31
0.0
  0
SOLID
  5
39E
330
39A
100
AcDbEntity
  8
1
 62
     3
100
AcDbTrace
 10
287.0651802154019
 20
12.36569154573831
 30
0.0
 11
286.1436127322901
 21
12.36569154573831
 31
0.0
 12
286.604396473846
 22
15.86569154573831
 32
0.0
 13
286.604396473846
 23
15.86569154573831
 33
0.0
  0
SOLID
  5
39F
330
39A
100
AcDbEntity
  8
1
 62
     3
100
AcDbTrace
 10
286.1436127322901
 20
-4.6343084542617
 30
0.0
 11
287.0651802154019
 21
-4.6343084542617
 31
0.0
 12
286.604396473846
 22
-8.1343084542617
 32
0.0
 13
286.604396473846
 23
-8.1343084542617
 33
0.0
  0
MTEXT
  5
3A0
330
39A
100
AcDbEntity
  8
1
 62
     4
100
AcDbMText
 10
284.604396473846
 20
0.95492923188698
 30
0.0
 40
3.5
 41
0.0
 71
     7
 72
     1
  1
24
  7
CONVERTER_13
 11
0.0
 21
1.0
 31
0.0
 73
     1
 44
0.60024009603842
  0
ENDBLK
  5
3A2
330
39A
100
AcDbEntity
  8
0
100
AcDbBlockEnd
  0
BLOCK
  5
3AC
330
3A5
100
AcDbEntity
  8
0
100
AcDbBlockBegin
  2
*D8
 70
     1
 71
     0
 10
0.0
 20
0.0
 30
0.0
  3
*D8
  1

  0
LINE
  5
3A6
330
3A5
100
AcDbEntity
  8
1
  6
Continuous
 62
     3
100
AcDbLine
 10
48.6197552269492
 20
30.466734183963
 30
0.0
 11
265.6197552269492
 21
30.466734183963
 31
0.0
  0
LINE
  5
3A7
330
3A5
100
AcDbEntity
  8
1
  6
Continuous
 62
     3
100
AcDbLine
 10
265.6197552269492
 20
11.8656915457383
 30
0.0
 11
265.6197552269492
 21
32.466734183963
 31
0.0
  0
LINE
  5
3A8
330
3A5
100
AcDbEntity
  8
1
  6
Continuous
 62
     3
100
AcDbLine
 10
48.6197552269492
 20
11.8656915457383
 30
0.0
 11
48.6197552269492
 21
32.466734183963
 31
0.0
  0
SOLID
  5
3A9
330
3A5
100
AcDbEntity
  8
1
 62
     3
100
AcDbTrace
 10
52.1197552269492
 20
30.92751792551888
 30
0.0
 11
52.1197552269492
 21
30.00595044240711
 31
0.0
 12
48.6197552269492
 22
30.466734183963
 32
0.0
 13
48.6197552269492
 23
30.466734183963
 33
0.0
  0
SOLID
  5
3AA
330
3A5
100
AcDbEntity
  8
1
 62
     3
100
AcDbTrace
 10
262.1197552269492
 20
30.00595044240711
 30
0.0
 11
262.1197552269492
 21
30.92751792551888
 31
0.0
 12
265.6197552269492
 22
30.466734183963
 32
0.0
 13
265.6197552269492
 23
30.466734183963
 33
0.0
  0
MTEXT
  5
3AB
330
3A5
100
AcDbEntity
  8
1
 62
     4
100
AcDbMText
 10
155.061058462871
 20
32.466734183963
 30
0.0
 40
3.5
 41
0.0
 71
     7
 72
     1
  1
217
  7
CONVERTER_13
 11
0.9999999999970621
 21
2.424068405545307E-6
 31
0.0
 73
     1
 44
0.60024009603842
  0
ENDBLK
  5
3AD
330
3A5
100
AcDbEntity
  8
0
100
AcDbBlockEnd
  0
BLOCK
  5
3B7
330
3B0
100
AcDbEntity
  8
0
100
AcDbBlockBegin
  2
*D9
 70
     1
 71
     0
 10
0.0
 20
0.0
 30
0.0
  3
*D9
  1

  0
LINE
  5
3B1
330
3B0
100
AcDbEntity
  8
1
  6
Continuous
 62
     3
100
AcDbLine
 10
15.6197552269492
 20
30.6869049179915
 30
0.0
 11
48.6197552269492
 21
30.6869049179915
 31
0.0
  0
LINE
  5
3B2
330
3B0
100
AcDbEntity
  8
1
  6
Continuous
 62
     3
100
AcDbLine
 10
48.6197552269492
 20
11.8656915457383
 30
0.0
 11
48.6197552269492
 21
32.6869049179915
 31
0.0
  0
LINE
  5
3B3
330
3B0
100
AcDbEntity
  8
1
  6
Continuous
 62
     3
100
AcDbLine
 10
15.6197552269492
 20
-28.1343084542617
 30
0.0
 11
15.6197552269492
 21
32.6869049179915
 31
0.0
  0
SOLID
  5
3B4
330
3B0
100
AcDbEntity
  8
1
 62
     3
100
AcDbTrace
 10
45.1197552269492
 20
30.22612117643561
 30
0.0
 11
45.1197552269492
 21
31.14768865954738
 31
0.0
 12
48.6197552269492
 22
30.6869049179915
 32
0.0
 13
48.6197552269492
 23
30.6869049179915
 33
0.0
  0
SOLID
  5
3B5
330
3B0
100
AcDbEntity
  8
1
 62
     3
100
AcDbTrace
 10
19.1197552269492
 20
31.14768865954738
 30
0.0
 11
19.1197552269492
 21
30.22612117643561
 31
0.0
 12
15.6197552269492
 22
30.6869049179915
 32
0.0
 13
15.6197552269492
 23
30.6869049179915
 33
0.0
  0
MTEXT
  5
3B6
330
3B0
100
AcDbEntity
  8
1
 62
     4
100
AcDbMText
 10
28.6012745208039
 20
32.6869049179915
 30
0.0
 40
3.5
 41
0.0
 71
     7
 72
     1
  1
33
  7
CONVERTER_13
 11
0.9999999999970621
 21
2.424068405545307E-6
 31
0.0
 73
     1
 44
0.60024009603842
  0
ENDBLK
  5
3B8
330
3B0
100
AcDbEntity
  8
0
100
AcDbBlockEnd
  0
BLOCK
  5
3C2
330
3BB
100
AcDbEntity
  8
0
100
AcDbBlockBegin
  2
*D10
 70
     1
 71
     0
 10
0.0
 20
0.0
 30
0.0
  3
*D10
  1

  0
LINE
  5
3BC
330
3BB
100
AcDbEntity
  8
1
  6
Continuous
 62
     3
100
AcDbLine
 10
-19.2339145534119
 20
-48.1343084542617
 30
0.0
 11
-19.2339145534119
 21
3.8656915457383
 31
0.0
  0
LINE
  5
3BD
330
3BB
100
AcDbEntity
  8
1
  6
Continuous
 62
     3
100
AcDbLine
 10
46.6197552269492
 20
3.8656915457383
 30
0.0
 11
-21.2339145534119
 21
3.8656915457383
 31
0.0
  0
LINE
  5
3BE
330
3BB
100
AcDbEntity
  8
1
  6
Continuous
 62
     3
100
AcDbLine
 10
-6.3802447730508
 20
-48.1343084542617
 30
0.0
 11
-21.2339145534119
 21
-48.1343084542617
 31
0.0
  0
SOLID
  5
3BF
330
3BB
100
AcDbEntity
  8
1
 62
     3
100
AcDbTrace
 10
-19.69469829496779
 20
-44.6343084542617
 30
0.0
 11
-18.77313081185601
 21
-44.6343084542617
 31
0.0
 12
-19.2339145534119
 22
-48.1343084542617
 32
0.0
 13
-19.2339145534119
 23
-48.1343084542617
 33
0.0
  0
SOLID
  5
3C0
330
3BB
100
AcDbEntity
  8
1
 62
     3
100
AcDbTrace
 10
-18.77313081185602
 20
0.3656915457383
 30
0.0
 11
-19.69469829496779
 21
0.3656915457383
 31
0.0
 12
-19.2339145534119
 22
3.8656915457383
 32
0.0
 13
-19.2339145534119
 23
3.8656915457383
 33
0.0
  0
MTEXT
  5
3C1
330
3BB
100
AcDbEntity
  8
1
 62
     4
100
AcDbMText
 10
-21.2339145534119
 20
-21.76764707683355
 30
0.0
 40
3.5
 41
0.0
 71
     7
 72
     1
  1
52
  7
CONVERTER_13
 11
0.0
 21
1.0
 31
0.0
 73
     1
 44
0.60024009603842
  0
ENDBLK
  5
3C3
330
3BB
100
AcDbEntity
  8
0
100
AcDbBlockEnd
  0
BLOCK
  5
3CD
330
3C6
100
AcDbEntity
  8
0
100
AcDbBlockBegin
  2
*D11
 70
     1
 71
     0
 10
0.0
 20
0.0
 30
0.0
  3
*D11
  1

  0
LINE
  5
3C7
330
3C6
100
AcDbEntity
  8
1
  6
Continuous
 62
     3
100
AcDbLine
 10
-179.2964484589109
 20
-77.0313984103086
 30
0.0
 11
-155.2964484589109
 21
-77.0313984103086
 31
0.0
  0
LINE
  5
3C8
330
3C6
100
AcDbEntity
  8
1
  6
Continuous
 62
     3
100
AcDbLine
 10
-179.2964484589109
 20
-91.95718794591721
 30
0.0
 11
-179.2964484589109
 21
-75.0313984103086
 31
0.0
  0
LINE
  5
3C9
330
3C6
100
AcDbEntity
  8
1
  6
Continuous
 62
     3
100
AcDbLine
 10
-155.2964484589109
 20
-102.9316749459172
 30
0.0
 11
-155.2964484589109
 21
-75.0313984103086
 31
0.0
  0
SOLID
  5
3CA
330
3C6
100
AcDbEntity
  8
1
 62
     3
100
AcDbTrace
 10
-158.7964484589109
 20
-77.49218215186448
 30
0.0
 11
-158.7964484589109
 21
-76.57061466875271
 31
0.0
 12
-155.2964484589109
 22
-77.0313984103086
 32
0.0
 13
-155.2964484589109
 23
-77.0313984103086
 33
0.0
  0
SOLID
  5
3CB
330
3C6
100
AcDbEntity
  8
1
 62
     3
100
AcDbTrace
 10
-175.7964484589109
 20
-76.57061466875271
 30
0.0
 11
-175.7964484589109
 21
-77.49218215186448
 31
0.0
 12
-179.2964484589109
 22
-77.0313984103086
 32
0.0
 13
-179.2964484589109
 23
-77.0313984103086
 33
0.0
  0
MTEXT
  5
3CC
330
3C6
100
AcDbEntity
  8
1
 62
     4
100
AcDbMText
 10
-170.363490743324
 20
-75.0313984103086
 30
0.0
 40
3.5
 41
0.0
 71
     7
 72
     1
  1
24
  7
CONVERTER_13
 11
0.9999999999970621
 21
2.424068405545307E-6
 31
0.0
 73
     1
 44
0.60024009603842
  0
ENDBLK
  5
3CE
330
3C6
100
AcDbEntity
  8
0
100
AcDbBlockEnd
  0
BLOCK
  5
3D8
330
3D1
100
AcDbEntity
  8
0
100
AcDbBlockBegin
  2
*D12
 70
     1
 71
     0
 10
0.0
 20
0.0
 30
0.0
  3
*D12
  1

  0
LINE
  5
3D2
330
3D1
100
AcDbEntity
  8
1
  6
Continuous
 62
     3
100
AcDbLine
 10
-155.2964484589109
 20
-77.1929750150367
 30
0.0
 11
-101.296448458911
 21
-77.1929750150367
 31
0.0
  0
LINE
  5
3D3
330
3D1
100
AcDbEntity
  8
1
  6
Continuous
 62
     3
100
AcDbLine
 10
-155.2964484589109
 20
-102.9316749459172
 30
0.0
 11
-155.2964484589109
 21
-75.1929750150367
 31
0.0
  0
LINE
  5
3D4
330
3D1
100
AcDbEntity
  8
1
  6
Continuous
 62
     3
100
AcDbLine
 10
-101.296448458911
 20
-121.8316689459171
 30
0.0
 11
-101.296448458911
 21
-75.1929750150367
 31
0.0
  0
SOLID
  5
3D5
330
3D1
100
AcDbEntity
  8
1
 62
     3
100
AcDbTrace
 10
-151.7964484589109
 20
-76.73219127348081
 30
0.0
 11
-151.7964484589109
 21
-77.65375875659258
 31
0.0
 12
-155.2964484589109
 22
-77.1929750150367
 32
0.0
 13
-155.2964484589109
 23
-77.1929750150367
 33
0.0
  0
SOLID
  5
3D6
330
3D1
100
AcDbEntity
  8
1
 62
     3
100
AcDbTrace
 10
-104.796448458911
 20
-77.65375875659258
 30
0.0
 11
-104.796448458911
 21
-76.73219127348081
 31
0.0
 12
-101.296448458911
 22
-77.1929750150367
 32
0.0
 13
-101.296448458911
 23
-77.1929750150367
 33
0.0
  0
MTEXT
  5
3D7
330
3D1
100
AcDbEntity
  8
1
 62
     4
100
AcDbMText
 10
-129.729739878575
 20
-75.1929750150367
 30
0.0
 40
3.5
 41
0.0
 71
     7
 72
     1
  1
54
  7
CONVERTER_13
 11
0.9999999999970621
 21
2.424068405545307E-6
 31
0.0
 73
     1
 44
0.60024009603842
  0
ENDBLK
  5
3D9
330
3D1
100
AcDbEntity
  8
0
100
AcDbBlockEnd
  0
BLOCK
  5
3E3
330
3DC
100
AcDbEntity
  8
0
100
AcDbBlockBegin
  2
*D13
 70
     1
 71
     0
 10
0.0
 20
0.0
 30
0.0
  3
*D13
  1

  0
LINE
  5
3DD
330
3DC
100
AcDbEntity
  8
1
  6
Continuous
 62
     3
100
AcDbLine
 10
-84.7959148332782
 20
-155.4316749459172
 30
0.0
 11
-84.7959148332782
 21
-119.4316749459171
 31
0.0
  0
LINE
  5
3DE
330
3DC
100
AcDbEntity
  8
1
  6
Continuous
 62
     3
100
AcDbLine
 10
-149.0427021660919
 20
-155.4316749459172
 30
0.0
 11
-82.7959148332782
 21
-155.4316749459172
 31
0.0
  0
LINE
  5
3DF
330
3DC
100
AcDbEntity
  8
1
  6
Continuous
 62
     3
100
AcDbLine
 10
-155.296448458911
 20
-119.4316749459171
 30
0.0
 11
-82.7959148332782
 21
-119.4316749459171
 31
0.0
  0
SOLID
  5
3E0
330
3DC
100
AcDbEntity
  8
1
 62
     3
100
AcDbTrace
 10
-85.25669857483409
 20
-151.9316749459172
 30
0.0
 11
-84.33513109172232
 21
-151.9316749459172
 31
0.0
 12
-84.7959148332782
 22
-155.4316749459172
 32
0.0
 13
-84.7959148332782
 23
-155.4316749459172
 33
0.0
  0
SOLID
  5
3E1
330
3DC
100
AcDbEntity
  8
1
 62
     3
100
AcDbTrace
 10
-84.33513109172232
 20
-122.9316749459171
 30
0.0
 11
-85.25669857483409
 21
-122.9316749459171
 31
0.0
 12
-84.7959148332782
 22
-119.4316749459171
 32
0.0
 13
-84.7959148332782
 23
-119.4316749459171
 33
0.0
  0
MTEXT
  5
3E2
330
3DC
100
AcDbEntity
  8
1
 62
     4
100
AcDbMText
 10
-86.7959148332782
 20
-139.385413639319
 30
0.0
 40
3.5
 41
0.0
 71
     7
 72
     1
  1
36
  7
CONVERTER_13
 11
0.0
 21
1.0
 31
0.0
 73
     1
 44
0.60024009603842
  0
ENDBLK
  5
3E4
330
3DC
100
AcDbEntity
  8
0
100
AcDbBlockEnd
  0
BLOCK
  5
3EE
330
3E7
100
AcDbEntity
  8
0
100
AcDbBlockBegin
  2
*D14
 70
     1
 71
     0
 10
0.0
 20
0.0
 30
0.0
  3
*D14
  1

  0
LINE
  5
3E8
330
3E7
100
AcDbEntity
  8
1
  6
Continuous
 62
     3
100
AcDbLine
 10
-70.9101896315769
 20
-201.4316749459171
 30
0.0
 11
-70.9101896315769
 21
-119.4316749459171
 31
0.0
  0
LINE
  5
3E9
330
3E7
100
AcDbEntity
  8
1
  6
Continuous
 62
     3
100
AcDbLine
 10
-103.696445458911
 20
-201.4316749459171
 30
0.0
 11
-68.9101896315769
 21
-201.4316749459171
 31
0.0
  0
LINE
  5
3EA
330
3E7
100
AcDbEntity
  8
1
  6
Continuous
 62
     3
100
AcDbLine
 10
-103.696445458911
 20
-119.4316749459171
 30
0.0
 11
-68.9101896315769
 21
-119.4316749459171
 31
0.0
  0
SOLID
  5
3EB
330
3E7
100
AcDbEntity
  8
1
 62
     3
100
AcDbTrace
 10
-71.37097337313278
 20
-197.9316749459171
 30
0.0
 11
-70.44940589002101
 21
-197.9316749459171
 31
0.0
 12
-70.9101896315769
 22
-201.4316749459171
 32
0.0
 13
-70.9101896315769
 23
-201.4316749459171
 33
0.0
  0
SOLID
  5
3EC
330
3E7
100
AcDbEntity
  8
1
 62
     3
100
AcDbTrace
 10
-70.44940589002101
 20
-122.9316749459171
 30
0.0
 11
-71.37097337313278
 21
-122.9316749459171
 31
0.0
 12
-70.9101896315769
 22
-119.4316749459171
 32
0.0
 13
-70.9101896315769
 23
-119.4316749459171
 33
0.0
  0
MTEXT
  5
3ED
330
3E7
100
AcDbEntity
  8
1
 62
     4
100
AcDbMText
 10
-72.9101896315769
 20
-165.584895151963
 30
0.0
 40
3.5
 41
0.0
 71
     7
 72
     1
  1
82
  7
CONVERTER_13
 11
0.0
 21
1.0
 31
0.0
 73
     1
 44
0.60024009603842
  0
ENDBLK
  5
3EF
330
3E7
100
AcDbEntity
  8
0
100
AcDbBlockEnd
  0
BLOCK
  5
3F9
330
3F2
100
AcDbEntity
  8
0
100
AcDbBlockBegin
  2
*D15
 70
     1
 71
     0
 10
0.0
 20
0.0
 30
0.0
  3
*D15
  1

  0
LINE
  5
3F3
330
3F2
100
AcDbEntity
  8
1
  6
Continuous
 62
     3
100
AcDbLine
 10
-26.3802447730508
 20
-236.9231554768661
 30
0.0
 11
301.6197552269492
 21
-236.9231554768661
 31
0.0
  0
LINE
  5
3F4
330
3F2
100
AcDbEntity
  8
1
  6
Continuous
 62
     3
100
AcDbLine
 10
301.6197552269492
 20
-197.2316559459171
 30
0.0
 11
301.6197552269492
 21
-238.9231554768661
 31
0.0
  0
LINE
  5
3F5
330
3F2
100
AcDbEntity
  8
1
  6
Continuous
 62
     3
100
AcDbLine
 10
-26.3802447730508
 20
-197.2316559459171
 30
0.0
 11
-26.3802447730508
 21
-238.9231554768661
 31
0.0
  0
SOLID
  5
3F6
330
3F2
100
AcDbEntity
  8
1
 62
     3
100
AcDbTrace
 10
-22.8802447730508
 20
-236.4623717353102
 30
0.0
 11
-22.8802447730508
 21
-237.383939218422
 31
0.0
 12
-26.3802447730508
 22
-236.9231554768661
 32
0.0
 13
-26.3802447730508
 23
-236.9231554768661
 33
0.0
  0
SOLID
  5
3F7
330
3F2
100
AcDbEntity
  8
1
 62
     3
100
AcDbTrace
 10
298.1197552269492
 20
-237.383939218422
 30
0.0
 11
298.1197552269492
 21
-236.4623717353102
 31
0.0
 12
301.6197552269492
 22
-236.9231554768661
 32
0.0
 13
301.6197552269492
 23
-236.9231554768661
 33
0.0
  0
MTEXT
  5
3F8
330
3F2
100
AcDbEntity
  8
1
 62
     4
100
AcDbMText
 10
126.3174470817458
 20
-234.9231554768661
 30
0.0
 40
3.5
 41
0.0
 71
     7
 72
     1
  1
328
  7
CONVERTER_13
 11
0.9999999999970621
 21
2.424068405545307E-6
 31
0.0
 73
     1
 44
0.60024009603842
  0
ENDBLK
  5
3FA
330
3F2
100
AcDbEntity
  8
0
100
AcDbBlockEnd
  0
BLOCK
  5
404
330
3FD
100
AcDbEntity
  8
0
100
AcDbBlockBegin
  2
*D16
 70
     1
 71
     0
 10
0.0
 20
0.0
 30
0.0
  3
*D16
  1

  0
LINE
  5
3FE
330
3FD
100
AcDbEntity
  8
1
  6
Continuous
 62
     3
100
AcDbLine
 10
-26.38024477305078
 20
-226.6271671711025
 30
0.0
 11
15.6197552269492
 21
-226.6271671711025
 31
0.0
  0
LINE
  5
3FF
330
3FD
100
AcDbEntity
  8
1
  6
Continuous
 62
     3
100
AcDbLine
 10
15.6197552269492
 20
-213.4316749459171
 30
0.0
 11
15.6197552269492
 21
-228.6271671711025
 31
0.0
  0
LINE
  5
400
330
3FD
100
AcDbEntity
  8
1
  6
Continuous
 62
     3
100
AcDbLine
 10
-26.38024477305078
 20
-197.2316559459171
 30
0.0
 11
-26.38024477305078
 21
-228.6271671711025
 31
0.0
  0
SOLID
  5
401
330
3FD
100
AcDbEntity
  8
1
 62
     3
100
AcDbTrace
 10
12.1197552269492
 20
-227.0879509126584
 30
0.0
 11
12.1197552269492
 21
-226.1663834295466
 31
0.0
 12
15.6197552269492
 22
-226.6271671711025
 32
0.0
 13
15.6197552269492
 23
-226.6271671711025
 33
0.0
  0
SOLID
  5
402
330
3FD
100
AcDbEntity
  8
1
 62
     3
100
AcDbTrace
 10
-22.88024477305078
 20
-226.1663834295466
 30
0.0
 11
-22.88024477305078
 21
-227.0879509126584
 31
0.0
 12
-26.38024477305078
 22
-226.6271671711025
 32
0.0
 13
-26.38024477305078
 23
-226.6271671711025
 33
0.0
  0
MTEXT
  5
403
330
3FD
100
AcDbEntity
  8
1
 62
     4
100
AcDbMText
 10
-14.05574168827189
 20
-224.6271671711025
 30
0.0
 40
3.5
 41
0.0
 71
     7
 72
     1
  1
42-52
  7
CONVERTER_13
 11
0.9999999999970621
 21
2.424068405545307E-6
 31
0.0
 73
     1
 44
0.60024009603842
  0
ENDBLK
  5
405
330
3FD
100
AcDbEntity
  8
0
100
AcDbBlockEnd
  0
ENDSEC
  0
SECTION
  2
ENTITIES
  0
INSERT
  5
41
330
1F
100
AcDbEntity
  8
0
100
AcDbBlockReference
  2
Tuerschiene_TS550
 10
45.1197552269492
 20
-79.6343084542617
 30
0.0
  0
INSERT
  5
42
330
1F
100
AcDbEntity
  8
0
100
AcDbBlockReference
  2
Deckplatte
 10
-194.8136557819528
 20
344.3798909741793
 30
0.0
  0
ENDSEC
  0
SECTION
  2
OBJECTS
  0
DICTIONARY
  5
C
330
0
100
AcDbDictionary
281
     1
  3
ACAD_GROUP
350
D
  3
ACAD_LAYOUT
350
1A
  3
ACAD_MLINESTYLE
350
17
  3
ACAD_PLOTSETTINGS
350
19
  3
ACAD_PLOTSTYLENAME
350
E
  0
DICTIONARY
  5
D
102
{ACAD_REACTORS
330
C
102
}
330
C
100
AcDbDictionary
281
     1
  0
DICTIONARY
  5
1A
102
{ACAD_REACTORS
330
C
102
}
330
C
100
AcDbDictionary
281
     1
  3
Layout1
350
1E
  3
Layout2
350
26
  3
Model
350
22
  0
DICTIONARY
  5
17
102
{ACAD_REACTORS
330
C
102
}
330
C
100
AcDbDictionary
281
     1
  3
Standard
350
18
  0
DICTIONARY
  5
19
102
{ACAD_REACTORS
330
C
102
}
330
C
100
AcDbDictionary
281
     1
  0
ACDBDICTIONARYWDFLT
  5
E
102
{ACAD_REACTORS
330
C
102
}
330
C
100
AcDbDictionary
281
     1
  3
Normal
350
F
100
AcDbDictionaryWithDefault
340
F
  0
LAYOUT
  5
1E
102
{ACAD_REACTORS
330
1A
102
}
330
1A
100
AcDbPlotSettings
  1

  2

  4

  6

 40
0.0
 41
0.0
 42
0.0
 43
0.0
 44
0.0
 45
0.0
 46
0.0
 47
0.0
 48
0.0
 49
0.0
140
0.0
141
0.0
142
1.0
143
1.0
 70
   688
 72
     0
 73
     0
 74
     5
  7

 75
    16
147
1.0
148
0.0
149
0.0
100
AcDbLayout
  1
Layout1
 70
     1
 71
     1
 10
0.0
 20
0.0
 11
0.0
 21
0.0
 12
0.0
 22
0.0
 32
0.0
 14
0.0
 24
0.0
 34
0.0
 15
0.0
 25
0.0
 35
0.0
146
0.0
 13
0.0
 23
0.0
 33
0.0
 16
1.0
 26
0.0
 36
0.0
 17
0.0
 27
1.0
 37
0.0
 76
     0
330
1B
  0
LAYOUT
  5
26
102
{ACAD_REACTORS
330
1A
102
}
330
1A
100
AcDbPlotSettings
  1

  2

  4

  6

 40
0.0
 41
0.0
 42
0.0
 43
0.0
 44
0.0
 45
0.0
 46
0.0
 47
0.0
 48
0.0
 49
0.0
140
0.0
141
0.0
142
1.0
143
1.0
 70
   688
 72
     0
 73
     0
 74
     5
  7

 75
    16
147
1.0
148
0.0
149
0.0
100
AcDbLayout
  1
Layout2
 70
     1
 71
     2
 10
0.0
 20
0.0
 11
0.0
 21
0.0
 12
0.0
 22
0.0
 32
0.0
 14
0.0
 24
0.0
 34
0.0
 15
0.0
 25
0.0
 35
0.0
146
0.0
 13
0.0
 23
0.0
 33
0.0
 16
1.0
 26
0.0
 36
0.0
 17
0.0
 27
1.0
 37
0.0
 76
     0
330
23
  0
LAYOUT
  5
22
102
{ACAD_REACTORS
330
1A
102
}
330
1A
100
AcDbPlotSettings
  1

  2

  4

  6

 40
0.0
 41
0.0
 42
0.0
 43
0.0
 44
0.0
 45
0.0
 46
0.0
 47
0.0
 48
0.0
 49
0.0
140
0.0
141
0.0
142
1.0
143
1.0
 70
  1712
 72
     0
 73
     0
 74
     0
  7

 75
     0
147
1.0
148
0.0
149
0.0
100
AcDbLayout
  1
Model
 70
     1
 71
     0
 10
0.0
 20
0.0
 11
0.0
 21
0.0
 12
0.0
 22
0.0
 32
0.0
 14
-250.5221139115838
 24
-306.1597844212137
 34
0.0
 15
333.4778860884162
 25
103.8402155787863
 35
0.0
146
0.0
 13
0.0
 23
0.0
 33
0.0
 16
1.0
 26
0.0
 36
0.0
 17
0.0
 27
1.0
 37
0.0
 76
     0
330
1F
  0
MLINESTYLE
  5
18
102
{ACAD_REACTORS
330
17
102
}
330
17
100
AcDbMlineStyle
  2
Standard
 70
     0
  3

 62
   256
 51
90.0
 52
90.0
 71
     2
 49
0.5
 62
   256
  6
BYLAYER
 49
-0.5
 62
   256
  6
BYLAYER
  0
ACDBPLACEHOLDER
  5
F
102
{ACAD_REACTORS
330
E
102
}
330
E
  0
ENDSEC
  0
EOF
